<?xml version="1.0" standalone="no"?>
<!DOCTYPE svg PUBLIC "-//W3C//DTD SVG 1.1//EN" "http://www.w3.org/Graphics/SVG/1.1/DTD/svg11.dtd" >
<svg xmlns="http://www.w3.org/2000/svg">
<metadata>Generated by IcoMoon</metadata>
<defs>
<font id="icomoon" horiz-adv-x="1024">
<font-face units-per-em="1024" ascent="960" descent="-64" />
<missing-glyph horiz-adv-x="1024" />
<glyph unicode="&#x20;" horiz-adv-x="512" d="" />
<glyph unicode="&#xe900;" glyph-name="user-solid" horiz-adv-x="896" d="M448 448c141.4 0 256 114.6 256 256s-114.6 256-256 256-256-114.6-256-256 114.6-256 256-256zM627.2 384h-33.4c-44.4-20.4-93.8-32-145.8-32s-101.2 11.6-145.8 32h-33.4c-148.4 0-268.8-120.4-268.8-268.8v-83.2c0-53 43-96 96-96h704c53 0 96 43 96 96v83.2c0 148.4-120.4 268.8-268.8 268.8z" />
<glyph unicode="&#xe901;" glyph-name="university" d="M992 704v-32c0-8.837-7.163-16-16-16v0h-48v-24c0-13.254-10.746-24-24-24h-784c-13.254 0-24 10.746-24 24v24h-48c-8.837 0-16 7.163-16 16v0 32c0 6.629 4.032 12.317 9.777 14.745l0.105 0.039 464 176c1.808 0.769 3.911 1.217 6.118 1.217s4.31-0.447 6.223-1.256l-0.105 0.039 464-176c5.85-2.467 9.882-8.155 9.882-14.784v0zM944 96h-864c-26.51 0-48-21.49-48-48v-32c0-8.837 7.163-16 16-16v0h928c8.837 0 16 7.163 16 16v0 32c0 26.51-21.49 48-48 48zM192 576v-384h-72c-13.254 0-24-10.746-24-24v-40h832v40c0 13.254-10.746 24-24 24h-72v384h-128v-384h-128v384h-128v-384h-128v384h-128z" />
<glyph unicode="&#xe902;" glyph-name="store" horiz-adv-x="1232" d="M1204 722.8l-129.8 207.2c-11.6 18.6-32.2 30-54.2 30h-808c-22 0-42.6-11.4-54.2-30l-129.8-207.2c-67-107-7.6-255.8 117.6-272.8 9-1.2 18.2-1.8 27.4-1.8 59.2 0 111.6 26 147.6 66.2 36-40.2 88.6-66.2 147.6-66.2 59.2 0 111.6 26 147.6 66.2 36-40.2 88.6-66.2 147.6-66.2 59.2 0 111.6 26 147.6 66.2 36.2-40.2 88.6-66.2 147.6-66.2 9.4 0 18.4 0.6 27.4 1.8 125.6 16.8 185.2 165.6 118 272.8zM1059 384c-20 0-39.8 3-59 7.6v-199.6h-768v199.6c-19.2-4.4-39-7.6-59-7.6-12 0-24.2 0.8-36 2.4-11.2 1.6-22.2 4.2-32.8 7.2v-393.6c0-35.4 28.6-64 64-64h896c35.4 0 64 28.6 64 64v393.6c-10.8-3.2-21.6-5.8-32.8-7.2-12.2-1.6-24.2-2.4-36.4-2.4z" />
<glyph unicode="&#xe903;" glyph-name="bank" d="M1003.24 775.78l-468.76 180.14c-6.674 2.583-14.397 4.080-22.47 4.080s-15.796-1.497-22.907-4.228l0.437 0.148-468.78-180.14c-12.232-4.683-20.759-16.326-20.76-29.96v0-73.82c0-17.68 14.32-32 32-32h960c17.68 0 32 14.32 32 32v73.82c0 13.34-8.28 25.28-20.76 29.96zM128 576v-320h-32c-17.68 0-32-14.32-32-32v-96h896v96c0 17.68-14.32 32-32 32h-32v320h-128v-320h-192v320h-128v-320h-192v320h-128zM992 64h-960c-17.68 0-32-14.32-32-32v-64c0-17.68 14.32-32 32-32h960c17.68 0 32 14.32 32 32v64c0 17.68-14.32 32-32 32z" />
<glyph unicode="&#xe904;" glyph-name="google-brands" horiz-adv-x="976" d="M976 436.4c0-283-193.8-484.4-480-484.4-274.4 0-496 221.6-496 496s221.6 496 496 496c133.6 0 246-49 332.6-129.8l-135-129.8c-176.6 170.4-505 42.4-505-236.4 0-173 138.2-313.2 307.4-313.2 196.4 0 270 140.8 281.6 213.8h-281.6v170.6h472.2c4.6-25.4 7.8-49.8 7.8-82.8z" />
<glyph unicode="&#xe905;" glyph-name="cash-register-solid" d="M1022.2 202.4l-53.4 320c-5.2 30.8-31.8 53.4-63.2 53.4h-489.6v128h192c17.6 0 32 14.4 32 32v192.2c0 17.6-14.4 32-32 32h-512c-17.6 0-32-14.4-32-32v-192c0-17.6 14.4-32 32-32h192v-128h-169.8c-31.2 0-58-22.6-63.2-53.4l-53.4-320c-1.2-7-1.8-14-1.8-21v-181.6c0-35.4 28.6-64 64-64h896c35.4 0 64 28.6 64 64v181.4c0.2 7-0.4 14-1.6 21zM560 464c0 17.6 14.4 32 32 32h32c17.6 0 32-14.4 32-32v-32c0-17.6-14.4-32-32-32h-32c-17.6 0-32 14.4-32 32v32zM496 336h32c17.6 0 32-14.4 32-32v-32c0-17.6-14.4-32-32-32h-32c-17.6 0-32 14.4-32 32v32c0 17.6 14.4 32 32 32zM432 496c17.6 0 32-14.4 32-32v-32c0-17.6-14.4-32-32-32h-32c-17.6 0-32 14.4-32 32v32c0 17.6 14.4 32 32 32h32zM160 800v64h384v-64h-384zM240 400h-32c-17.6 0-32 14.4-32 32v32c0 17.6 14.4 32 32 32h32c17.6 0 32-14.4 32-32v-32c0-17.6-14.4-32-32-32zM272 272v32c0 17.6 14.4 32 32 32h32c17.6 0 32-14.4 32-32v-32c0-17.6-14.4-32-32-32h-32c-17.6 0-32 14.4-32 32zM704 48c0-8.8-7.2-16-16-16h-352c-8.8 0-16 7.2-16 16v32c0 8.8 7.2 16 16 16h352c8.8 0 16-7.2 16-16v-32zM752 272c0-17.6-14.4-32-32-32h-32c-17.6 0-32 14.4-32 32v32c0 17.6 14.4 32 32 32h32c17.6 0 32-14.4 32-32v-32zM848 432c0-17.6-14.4-32-32-32h-32c-17.6 0-32 14.4-32 32v32c0 17.6 14.4 32 32 32h32c17.6 0 32-14.4 32-32v-32z" />
<glyph unicode="&#xe906;" glyph-name="cart-plus-solid" horiz-adv-x="1152" d="M1009.434 320h-586.29l13.090-64h536.836c30.802 0 53.632-28.602 46.806-58.638l-11.034-48.552c37.382-18.146 63.158-56.466 63.158-100.81 0-62.404-51.038-112.888-113.648-111.988-59.646 0.858-108.7 49.262-110.31 108.894-0.88 32.574 12.17 62.098 33.606 83.096h-419.296c20.754-20.332 33.648-48.654 33.648-80.002 0-63.626-53.056-114.862-117.34-111.876-57.080 2.65-103.502 48.77-106.502 105.834-2.316 44.068 20.872 82.91 56.102 103.172l-140.494 686.87h-139.766c-26.51 0-48 21.49-48 48v32c0 26.51 21.49 48 48 48h205.058c22.802 0 42.456-16.042 47.026-38.38l18.332-89.62h785.564c30.802 0 53.632-28.602 46.806-58.638l-94.546-416c-4.966-21.854-24.394-37.362-46.806-37.362zM816 624h-96v80c0 17.674-14.326 32-32 32h-32c-17.674 0-32-14.326-32-32v-80h-96c-17.674 0-32-14.326-32-32v-32c0-17.674 14.326-32 32-32h96v-80c0-17.674 14.326-32 32-32h32c17.674 0 32 14.326 32 32v80h96c17.674 0 32 14.326 32 32v32c0 17.674-14.326 32-32 32z" />
<glyph unicode="&#xe907;" glyph-name="cart-arrow-down-solid" horiz-adv-x="1152" d="M1009.434 320h-586.29l13.090-64h536.836c30.802 0 53.632-28.602 46.806-58.638l-11.034-48.552c37.382-18.146 63.158-56.466 63.158-100.81 0-62.404-51.038-112.888-113.648-111.988-59.646 0.858-108.7 49.262-110.31 108.894-0.88 32.574 12.17 62.098 33.606 83.096h-419.296c20.754-20.332 33.648-48.654 33.648-80.002 0-63.626-53.056-114.862-117.34-111.876-57.080 2.65-103.502 48.77-106.502 105.834-2.316 44.068 20.872 82.91 56.102 103.172l-140.494 686.87h-139.766c-26.51 0-48 21.49-48 48v32c0 26.51 21.49 48 48 48h205.058c22.802 0 42.456-16.042 47.026-38.38l18.332-89.62h785.564c30.802 0 53.632-28.602 46.806-58.638l-94.546-416c-4.966-21.854-24.394-37.362-46.806-37.362zM806.058 576h-86.058v120c0 13.254-10.746 24-24 24h-48c-13.254 0-24-10.746-24-24v-120h-86.058c-21.382 0-32.090-25.852-16.97-40.97l134.058-134.058c9.372-9.372 24.568-9.372 33.942 0l134.058 134.058c15.118 15.118 4.41 40.97-16.972 40.97z" />
<glyph unicode="&#xe908;" glyph-name="shopping-cart-solid" horiz-adv-x="1152" d="M1056.24 357.362l94.546 416c6.826 30.036-16.004 58.638-46.806 58.638h-785.564l-18.332 89.62c-4.568 22.338-24.224 38.38-47.026 38.38h-205.058c-26.51 0-48-21.49-48-48v-32c0-26.51 21.49-48 48-48h139.766l140.496-686.87c-33.612-19.33-56.262-55.574-56.262-97.13 0-61.856 50.144-112 112-112s112 50.144 112 112c0 31.348-12.894 59.67-33.648 80h419.294c-20.752-20.33-33.646-48.652-33.646-80 0-61.856 50.144-112 112-112s112 50.144 112 112c0 44.344-25.776 82.664-63.158 100.81l11.034 48.552c6.826 30.036-16.004 58.638-46.806 58.638h-536.836l-13.090 64h586.29c22.412 0 41.84 15.508 46.806 37.362z" />
<glyph unicode="&#xe909;" glyph-name="star-solid" horiz-adv-x="1152" d="M518.6 924.4l-130.6-264.8-292.2-42.6c-52.4-7.6-73.4-72.2-35.4-109.2l211.4-206-50-291c-9-52.6 46.4-92 92.8-67.4l261.4 137.4 261.4-137.4c46.4-24.4 101.8 14.8 92.8 67.4l-50 291 211.4 206c38 37 17 101.6-35.4 109.2l-292.2 42.6-130.6 264.8c-23.4 47.2-91.2 47.8-114.8 0z" />
<glyph unicode="&#xe90a;" glyph-name="apple-pay" horiz-adv-x="1280" d="M233.8 643c-15-17.8-39-31.8-63-29.8-3 24 8.8 49.6 22.6 65.2 15 18.2 41.2 31.2 62.6 32.2 2.4-24.8-7.4-49.4-22.2-67.6zM255.6 608.6c-34.8 2-64.6-19.8-81-19.8-16.8 0-42 18.8-69.6 18.2-35.8-0.6-69-20.8-87.2-53-37.6-64.6-9.8-160 26.6-212.6 17.8-26 39-54.6 67-53.6 26.6 1 37 17.2 69 17.2 32.2 0 41.6-17.2 69.6-16.8 29 0.6 47.2 26 65 52 20.2 29.6 28.6 58.2 29 59.8-0.6 0.6-56 21.8-56.6 85.8-0.6 53.6 43.8 79 45.8 80.6-25 37.2-64 41.2-77.6 42.2zM456.4 681v-389.8h60.6v133.2h83.8c76.6 0 130.2 52.6 130.2 128.6s-52.8 128-128.2 128h-146.4zM517 630h69.8c52.6 0 82.6-28 82.6-77.2s-30-77.6-82.8-77.6h-69.6v154.8zM841.4 288.2c38 0 73.2 19.2 89.2 49.8h1.2v-46.8h56v194c0 56.2-45 92.6-114.2 92.6-64.2 0-111.8-36.8-113.6-87.2h54.6c4.6 24 26.8 39.8 57.2 39.8 37 0 57.8-17.2 57.8-49v-21.6l-75.6-4.6c-70.2-4.2-108.2-33-108.2-83 0.2-50.4 39.4-84 95.6-84zM857.8 334.4c-32.2 0-52.8 15.6-52.8 39.2 0 24.6 19.8 38.8 57.6 41l67.2 4.2v-22c0-36.4-31-62.4-72-62.4zM1062.8 185.2c59 0 86.8 22.6 111 90.8l106.2 298h-61.6l-71.2-230.2h-1.2l-71.2 230.2h-63.2l102.4-283.8-5.6-17.2c-9.2-29.2-24.2-40.6-51-40.6-4.8 0-14 0.6-17.8 1v-46.8c3.6-0.8 18.6-1.4 23.2-1.4z" />
<glyph unicode="&#xe90b;" glyph-name="cc-amazon-pay" horiz-adv-x="1152" d="M249.4 556.4c0.2 23.6 0 47 0 70.6v70.6c0 2.6 0.8 4 2.8 5.4 23 16 48.2 24.2 76.4 22.2 25-1.8 45.4-14 56.2-43.4 6.6-17.8 8.2-36.4 8.2-55.4 0-17.4-1.4-34.6-6.8-51.2-11.4-35.6-37.4-49.4-71.4-47.8-23.4 1-43.8 10-62.8 23.4-1.8 1.6-2.8 3.2-2.6 5.6zM559.2 527.2c9.2-3.6 18.6-4 28.2-3 23.2 2.4 43.8 11.4 62.6 25 1.8 1.2 2.6 2.6 2.6 5-0.2 7.8 0 15.8 0 23.6 0 8-0.2 16 0 24 0 2.8-0.8 4-3.6 4.4-14 1.8-27.8 4.4-41.8 5.8-14 1.2-28 0.6-41.6-3.8-13.4-4.4-23.4-12.4-27.4-26.2-3.2-10.8-3.2-21.6 0.2-32.4 3.2-11 10.4-18.4 20.8-22.4zM1152 800v-704c0-53-43-96-96-96h-960c-53 0-96 43-96 96v704c0 53 43 96 96 96h960c53 0 96-43 96-96zM737 752.2c0.8-3.4 1.8-6.8 3.2-10.2 33-81.2 65.8-162.6 99-243.8 2.8-7 3.4-12.8 0.4-19.8-5.6-12.4-9.8-25.2-15.6-37.4-5.2-11-13.4-19-25.4-22.4-8.4-2.2-17-2.6-25.8-1.8-4.2 0.4-8.4 1.4-12.6 1.6-5.6 0.4-8.4-2.2-8.6-8-0.2-5.6-0.2-11.2 0-16.6 0.2-9.2 3.2-13.4 12.4-15 9.4-1.6 18.8-3.2 28.4-3.4 28.6-0.6 51.4 10.8 66.2 35.8 5.8 9.8 11.2 20.2 15.4 30.8 39.6 100.2 79 200.6 118.4 301 1.2 3 2.2 6 2.6 9.2 0.8 4.8-1.4 7.2-6.2 7.4-11.2 0.2-22.2 0-33.4 0-6.2 0-10.6-2.8-12.8-8.6-0.8-2.2-1.8-4.6-2.6-6.8l-58.2-167.4c-4.2-12.2-8.4-24.2-13-37.2-0.8 1.8-1.2 2.8-1.6 3.8-21.6 59.8-43.2 119.8-64.8 179.6-3.4 9.4-7 19-10.6 28.4-1.8 5-5.4 8-10.8 8-12.8 0.2-25.6 0.4-38.4 0.2-4.4 0-6.6-3.2-5.6-7.4zM484.8 548c3.4-23.4 15.2-41.6 36-53.2 19.8-11 41.4-12.4 63.4-9.2 25.4 3.8 47.8 14.6 67.6 31 0.8 0.6 1.6 1.2 2.8 2 1-6.4 1.8-12.4 3-18.4 1-5.2 4.2-8.6 9-8.8 9.2-0.2 18.2-0.2 27.4 0 4.6 0.2 7.6 3.2 8 7.8 0.2 1.6 0.2 3.2 0.2 4.6v177.6c0 7.2-0.4 14.4-1.4 21.6-3.2 21.6-12.4 39.4-31.8 50.8-11.2 6.6-23.6 10-36.4 11.8-6 0.8-12 1.4-18.2 2.2h-20c-1.6-0.2-3.2-0.6-5-0.6-16.4-0.8-32.6-2.8-48.4-7-10.2-2.6-20-6.4-30-9.8-6-2-9-6.4-8.8-13 0.2-5.6-0.2-11.2 0-16.6 0.2-8.2 3.6-10.4 11.4-8.2 13 3.4 26.2 7 39.4 9.6 20.6 3.8 41.4 5.4 62.2 2.4 10.8-1.6 21-4.8 28.2-14 6.2-8 8.4-17.6 8.8-27.4 0.6-13.8 0.4-27.8 0.6-41.6 0-0.8-0.2-1.4-0.4-2.4-0.8 0-1.6 0-2.2 0.2-17.6 4.2-35.4 7.2-53.6 8.2-19 1-37.8-0.2-55.8-6.4-21.6-7.6-39-20.6-49.2-41.6-8.2-16.6-9.2-34-6.8-51.6zM197.4 746.2v-350.6c0-1.6 0-3.4 0.2-5 0.4-5 3.4-8.2 8.2-8.4 11.8-0.2 23.6-0.2 35.4 0 5 0 8 3.4 8.2 8.2 0.2 1.6 0.2 3.4 0.2 5v121.4c1.8-1.4 2.8-2.4 3.8-3.2 30-25 64.4-33.2 102.2-25.8 34.2 6.8 57.8 27.8 73.4 58.4 11.6 23.2 16.6 48.2 17.4 74 1 28.6-2 56.8-13.6 83.4-14.2 32.8-37.8 54.6-73.4 61.8-5.4 1.2-11 1.6-16.4 2.4h-14c-2.4-0.4-4.8-0.6-7.2-1-23.4-2.8-44.6-11.6-63.6-25.4-4-2.8-7.8-6-11.8-9-0.2 1-0.6 1.6-0.8 2.4-0.8 4.6-1.4 9.2-2.2 13.8-1.2 7.8-5 11-12.8 11.2h-19.4c-11.8 0.2-13.8-2-13.8-13.6zM987.2 282c-5.4 1.4-10.2 0-15.2-2-87.8-36.8-179-60.4-273.6-71.6-29-3.4-58.2-5.6-87.4-6.4-53.2-1.4-106.4 1.6-159.2 8.6-35.6 4.8-71 11.4-106 19.8-74 17.8-145.4 43.4-213.4 77.6-17.6 8.8-34.8 18.6-52.2 28-7.6 4.2-12.4 3-16.4-4.2v-3.4c2.4-3.2 4.4-6.8 7.4-9.6 72-64.4 153.2-113 244-145.8 43.8-15.8 88.8-27.4 134.6-35 28-4.6 56-7.6 84.4-9 6-0.2 12-0.4 18-0.8 1.4 0 2.8-0.4 4.2-0.6h35.4c1.4 0.2 2.8 0.6 4.2 0.6 29.8 0.8 59.6 3.6 89.2 8 42.8 6.4 84.8 16.2 125.8 29.4 59.2 19.2 115.4 44.8 166.8 80.2 5.6 3.8 11.4 7.6 16 12.4 8.6 8.8 4.6 20.8-6.6 23.8zM1088 337.4c-1.6 8.4-8 11.6-15.2 14-11.4 3.8-23.2 5.6-35.2 6.6-22 1.8-44 0.8-65.6-3.2-24-4.4-46.8-12.2-67-26.2-2.4-1.6-4.8-3.6-6.2-6-1.2-1.8-1.4-4.6-1-6.8 0.6-2.6 3.4-3.2 6-3 1.2 0 2.4 0 3.6 0.2l39 4.2c19.2 1.8 38.4 3 57.6 1.6 8.2-0.6 16.2-2.4 24-4.4 8.6-2.2 12.4-8.8 12.8-17.4 0.6-13.4-2.4-26.2-5.8-39-7-25.8-16.6-50.8-26.6-75.6-0.6-1.6-1.4-3.4-1.6-5-0.8-5 2-8 6.8-7 2.8 0.6 6 2.2 8 4.2 7.4 7.2 15 14.4 21.2 22.4 21.4 27.6 34 59.2 41.4 93.2 1.4 6 2.4 12.2 3.4 18.2 0.4 9.4 0.4 19.2 0.4 29z" />
<glyph unicode="&#xe90c;" glyph-name="cc-amex" horiz-adv-x="1152" d="M650.2 624.4c0 32.8-28.2 36.8-54.8 36.8l-78.2 0.6v-138.6h32.8v50.2h36c36.8 0 29-20.6 29.6-50.2h33.2v27c0 18.4-3 30.2-22 36.8 14.8 6 23.6 21.4 23.4 37.4zM591.4 601.8h-41.4v30.6h42c10.2 0 21.4-2 21.4-14.8 0-13.2-10.6-15.8-22-15.8zM558 422.8h-105.4l-42-45.6-41 45.6h-133l-0.2-138.6h130.8l42.6 46 40.8-46h64.4l0.2 46.6c37.8 0 98.6-9.2 98.6 46.6 0 34.6-24.6 45.4-55.8 45.4zM350.4 313.4h-81.2v27.6h72.6v28.2h-72.6v25h83.4l35.8-40.4zM482 297l-50.6 56.2 50.6 54.8zM557.6 359h-42.4v35.2h43c11.2 0 20.4-4.6 20.4-16.8 0-12.8-9.2-18.4-21-18.4zM494.4 632.4v29.2h-111v-138.6h111v28.6h-77.8v27.6h75.6v28.2h-75.6v25zM1152 449.2h-0.4zM762.8 385.4c0 32.8-28.2 37.4-54.2 37.4h-78.8l-0.2-138.6h33.2l0.2 50.6h35.2c22 0 29.6-4 29.6-27.6l-0.2-23h33.2l0.2 27.6c0 17.8-3.6 30.2-22 36.8 15.4 6.2 23.6 21.6 23.8 36.8zM704.4 363h-41.4v31.2h42c10.2 0 21.4-2 21.4-14.8 0-13.8-10.8-16.4-22-16.4zM358.8 523v138.6h-55.2l-39.4-94-43.4 94h-54.2v-131.4l-56.2 131.4h-49l-59.4-138.6h35.8l12.8 30.6h69l12.8-30.6h67.6v108.4l48-108.4h29.2l48 108.4v-108.4zM62.4 582.4l22.4 55.2 23-55.2zM1017.2 264.6v9c-21.6-11.2-7.8-9-313.4-9 0 50.4 0.2 47.8 0 50.4-3.4 0.2-6.4 0.2-18.8 0.2 0-35.8-0.2-13.6-0.2-50.6h-79.2c0 24.2 0.2 30.6 0.2 58.4-20-12-45.6-12.8-68.6-12.4 0-29.4-0.2-16.6-0.2-46h-97.8c-10.2 11.4-5.4 6.2-30.8 34.8-6.4-7-25.6-27.8-32.2-34.8h-164v184.6h166.2c10-11.2 5.6-6.2 31-34.4 6.4 7 24.4 26.8 31.4 34.4h116c19.6 0 36-3.8 48.6-11.2v11.2c108.6 0 128.6 2.8 151.4-10.2v10.2h156.4v-10.4c22.8 13.8 39.2 10.4 129.8 10.4v-10c20.6 11.8 33.2 10.4 108.6 10v350.8c0 53-43 96-96 96h-960c-53 0-96-43-96-96v-219.6c18.8 43.8 39.4 92 46.2 107.8h79.4c8.6-20.2 3.2-7.4 18-42.2v42.2h92c5.8-12.4 22.2-48 27.8-60 11.6 27.2 20.2 47.8 25.2 60h206c0 0.2 23 0 23.2 0 87.4-0.4 107.2 1.6 128.8-10.6v10.6h79.8v-18.6c15.2 12.2 35.8 18.6 61.4 18.6h55.2c0-1 3.8-0.6 4.6-0.6h64.8c8.4-19.6 5.2-12 17.6-41.2v41.2h86.6c9.8-16-2 3.6 22.4-36.8v36.8h79.8v-184h-83.2c-10.8 18-2.8 4.4-26.4 43.8v-43.8h-105.6c-12.8 29.6-0.2 0.6-13.2 30.6h-38c-8.4-20-4.4-10.4-12.8-30.6h-53.6c-24.6 0-44.6 6-59.4 17.8v-17.8h-133c-0.6 27.8-0.2 49.6-0.2 49.6-3.6 0.6-6.8 0.4-19.6 0.4v-50.2h-271v22.8c-5-11.2-5.4-11.8-10.2-22.8h-59c-8 17.8-5.8 12.8-10.2 22.8v-22.8h-105.8c-8.4 20.2-4.4 10.6-12.8 30.6h-38.4c-8.4-20-4.4-10.4-12.8-30.6h-53.2v-407.4c0-53 43-96 96-96h960.2c53 0 96 43 96 96v180.8c-25.4-16.6-65.4-12.2-135-12.2zM1089.8 393.6h60.2v29.2h-65.8c-25.6 0-47.6-13.2-47.6-41.4 0-66 85.4-25.6 85.4-54.8 0-10.2-8.6-12.8-16.8-12.8h-64l-0.2-29.6h64c16.8 0 35.2 3.6 45 17.8v51.6c-21 27.6-78.6 2.6-78.6 27 0 11.6 9.2 13 18.4 13zM975.8 314h-64.4l-0.2-29.6h64.4c29.6 0 52.4 11.2 52.4 44 0 66.4-85.8 22.4-85.8 52.6 0 11.2 9.8 12.8 18.4 12.8h60.8v29.2h-66.4c-25.6 0-47-13.2-47-41.4 0-66 85.4-25 85.4-54.8-0.2-10.8-9.4-12.8-17.6-12.8zM891.4 394.2v28.6h-110.4l-0.2-138.6h110.4l0.2 28.6-77.2 0.6v27.6h75.8v28.2h-75.6v25zM778.8 610.4c-0.6-0.4-2.8-4.4-2.8-15.2 0-12 1.8-15.4 2.2-15.8 0.4-0.2 2.2-1 6.8-1l14.6 33.8c-2.2 0-4.2 0.2-6.2 0.2-11.2 0-14-1.4-14.6-2zM819.6 631.4h-0.2zM787.2 661.8c-47 0-68-24-68-70.6 0-44.4 20.4-68 66-68h38.4l12.8 30.6h68.6l13.2-30.6h67.4v103.8l62.4-103.8h47.2v138h-33.8v-96.2l-58.2 96.2h-50.6v-130.8l-55.8 130.8h-49.6l-47-109h-14.8c-26.6 0-32.2 16.2-32.2 39.8 0 47.6 31.4 40 66.2 39.4v30.4zM871.4 637.6l22.4-55.2h-45.6zM669.2 661.6v-138.6h33.8v138.6z" />
<glyph unicode="&#xe90d;" glyph-name="cc-apple-pay" horiz-adv-x="1152" d="M604.4 523.2c0-34.4-21-54.2-58-54.2h-48.6v108.4h48.8c36.8 0 57.8-19.6 57.8-54.2zM699.4 398c0-16.6 14.4-27.4 37-27.4 28.8 0 50.4 18.2 50.4 43.8v15.4l-47-3c-26.6-1.8-40.4-11.6-40.4-28.8zM1152 802v-704c0-53-43-96-96-96h-960c-53 0-96 43-96 96v704c0 53 43 96 96 96h960c53 0 96-43 96-96zM255.6 565.6c16.8-1.4 33.6 8.4 44.2 20.8 10.4 12.8 17.2 30 15.4 47.4-14.8-0.6-33.2-9.8-43.8-22.6-9.6-11-17.8-28.8-15.8-45.6zM376.8 416.6c-0.4 0.4-39.2 15.2-39.6 60-0.4 37.4 30.6 55.4 32 56.4-17.6 26-44.8 28.8-54.2 29.4-24.4 1.4-45.2-13.8-56.8-13.8-11.8 0-29.4 13.2-48.6 12.8-25-0.4-48.4-14.6-61-37.2-26.2-45.2-6.8-112 18.6-148.8 12.4-18.2 27.4-38.2 47-37.4 18.6 0.8 26 12 48.4 12 22.6 0 29-12 48.6-11.8 20.4 0.4 33 18.2 45.6 36.4 13.8 20.8 19.6 40.8 20 42zM647.6 523.4c0 53.2-37 89.6-89.8 89.6h-102.4v-272.8h42.4v93.2h58.6c53.6 0 91.2 36.8 91.2 90zM827.6 476c0 39.4-31.6 64.8-80 64.8-45 0-78.2-25.8-79.4-61h38.2c3.2 16.8 18.8 27.8 40 27.8 26 0 40.4-12 40.4-34.4v-15l-52.8-3.2c-49.2-3-75.8-23.2-75.8-58.2 0-35.4 27.4-58.8 66.8-58.8 26.6 0 51.2 13.4 62.4 34.8h0.8v-32.8h39.2v136zM1032 538.2h-43l-49.8-161.2h-0.8l-49.8 161.2h-44.6l71.8-198.6-3.8-12c-6.4-20.4-17-28.4-35.8-28.4-3.4 0-9.8 0.4-12.4 0.6v-32.8c2.4-0.8 13-1 16.2-1 41.4 0 60.8 15.8 77.8 63.6l74.2 208.6z" />
<glyph unicode="&#xe90e;" glyph-name="cc-diners-club" horiz-adv-x="1152" d="M479.4 800.2c-193.8 0-351.6-157.2-351.6-351.6 0-193.8 157.8-351.6 351.6-351.6 194.4 0 351.6 157.8 351.6 351.6 0 194.4-157.2 351.6-351.6 351.6zM399.6 241c-83.4 31.8-142.8 112.8-142.8 207.6s59.4 175.8 142.8 208.2v-415.8zM559.2 240.4v416.4c83.4-32.4 142.8-113.4 142.8-208.2s-59.4-175.8-142.8-208.2zM1056 896h-960c-53 0-96-43-96-96v-704c0-53 43-96 96-96h960c53 0 96 43 96 96v704c0 53-43 96-96 96zM659.4 64h-180.6c-212.4 0-387.6 171-387.6 380.4 0 229.2 175.2 387.6 387.6 387.6h180.6c210 0 401.4-158.4 401.4-387.6 0-209.4-191.4-380.4-401.4-380.4z" />
<glyph unicode="&#xe90f;" glyph-name="cc-discover" horiz-adv-x="1152" d="M1040.8 567.8c0 15.8-11 24.2-31.2 24.2h-9.8v-49.8h9.4c20.6 0 31.6 8.8 31.6 25.6zM1056 896h-960c-53 0-96-43-96-96v-704c0-53 43-96 96-96h960c53 0 96 43 96 96v704c0 53-43 96-96 96zM967.8 618.2c45.2 0 105.8 8.2 105.8-48.8 0-25.2-13.2-41.4-37.4-46.4l51.6-68.8h-39.2l-44.4 65.6h-4.4v-65.6h-32zM856 618h90.6v-28h-58.6v-36.4h56.6v-27.6h-56.6v-44.4h58.6v-27.6h-90.6zM718.6 618l43.8-110.4 44.4 110.4h35l-71-168.4h-17.2l-70 168.4zM606.8 624c49.4 0 89.2-40 89.2-89.2 0-49.4-40-89.2-89.2-89.2-49.4 0-89.2 40-89.2 89.2 0 49.4 40 89.2 89.2 89.2zM508.2 611.8v-38c-40.2 40.2-93.6 9.4-93.6-38 0-50 55-77 93.6-38.4v-38c-59.4-28.6-126.6 11.4-126.6 76.4 0 62.4 66.2 106 126.6 76zM313.8 479.2c22.8 0 44.8 30.6-6.6 48.8-30 11-40.4 22.8-40.4 45.4 0 46.4 61.2 62.8 99.4 28.6l-16.8-21.6c-20.8 23.2-49.8 12.4-49.8-5 0-8.8 5.4-13.8 24.6-20.6 36.4-13.2 47.2-25 47.2-51.2 0-59-77.6-74.8-113.2-22.6l20.6 19.8c7.4-14.2 19.8-21.6 35-21.6zM110.8 454h-46.8v164h46.8c52.2 0 88.2-34 88.2-82.2 0-37-26.4-81.8-88.2-81.8zM245.8 454h-32v164h32zM1088 94c0-16.4-13.6-30-30-30h-802c379.2 71.2 765.4 278.4 832 320zM148.2 576.8c-10.4 9.8-23.2 13.2-43.8 13.2h-8.4v-108.4h8.4c20.6 0 34 4 43.8 12.8 11.4 10.4 17.8 25.6 17.8 41.4s-6.4 31-17.8 41z" />
<glyph unicode="&#xe910;" glyph-name="cc-jcb" horiz-adv-x="1152" d="M863 471.4v64.6c82.4 0 77-0.4 77-0.4 14.6-2.6 26.6-14.6 26.6-32 0-17.6-12-29-26.6-31.6-2.4-0.8-6.6-0.6-77-0.6zM948.6 431c-5.6 1.4-6.6 1-85.6 1v-70c79.2 0 80-0.4 85.6 1 15 3 27 16 27 34 0 17.4-12 31-27 34zM1152 800v-704c0-53-43-96-96-96h-960c-53 0-96 43-96 96v704c0 53 43 96 96 96h960c53 0 96-43 96-96zM364 575.4h-114c0-134.2 21.4-219.4-71.6-219.4-39 0-77.6 11.4-114.4 29.6v-56c60-16.6 136-16.6 136-16.6 195.8 0 164 95.4 164 262.4zM721 566.4c-126.8 32-330 29.8-330-118.6 0-154.2 216.4-147.2 330-118.4v56.6c-95.2-49.4-215-44-215 62s119.6 111.2 215 62.4v56zM1088 387c0 37-33 61-76 64v1.6c39 5.4 60.6 31 60.6 60.4 0 38-31.4 60-74 62 0 0 12.6 0.6-240.6 0.6v-255h245.4c48.6-0.2 84.6 25.8 84.6 66.4z" />
<glyph unicode="&#xe911;" glyph-name="cc-mastercard" horiz-adv-x="1152" d="M965.8 139.4c0-13.6-9.2-23.4-22.4-23.4-13.6 0-22.4 10.4-22.4 23.4s8.8 23.4 22.4 23.4c13.2 0 22.4-10.4 22.4-23.4zM344.2 162.8c-14.2 0-22.4-10.4-22.4-23.4s8.2-23.4 22.4-23.4c13 0 21.8 9.8 21.8 23.4-0.2 13-8.8 23.4-21.8 23.4zM579.2 163.4c-10.8 0-17.4-7-19-17.4h38.2c-1.8 11.4-8.8 17.4-19.2 17.4zM794.8 162.8c-13.6 0-21.8-10.4-21.8-23.4s8.2-23.4 21.8-23.4c13.6 0 22.4 9.8 22.4 23.4 0 13-8.8 23.4-22.4 23.4zM1006.6 110.6c0-0.6 0.6-1 0.6-2.2 0-0.6-0.6-1-0.6-2.2-0.6-0.6-0.6-1-1-1.6-0.6-0.6-1-1-2.2-1-0.6-0.6-1-0.6-2.2-0.6-0.6 0-1 0-2.2 0.6-0.6 0-1 0.6-1.6 1-0.6 0.6-1 1-1 1.6-0.6 1-0.6 1.6-0.6 2.2 0 1 0 1.6 0.6 2.2 0 1 0.6 1.6 1 2.2 0.6 0.6 1 0.6 1.6 1 1 0.6 1.6 0.6 2.2 0.6 1 0 1.6 0 2.2-0.6 1-0.6 1.6-0.6 2.2-1s0.4-1.2 1-2.2zM1002.2 107.8c1 0 1 0.6 1.6 0.6 0.6 0.6 0.6 1 0.6 1.6s0 1-0.6 1.6c-0.6 0-1 0.6-2.2 0.6h-3.2v-7h1.6v2.8h0.6l2.2-2.8h1.6l-2.2 2.6zM1152 798v-704c0-53-43-96-96-96h-960c-53 0-96 43-96 96v704c0 53 43 96 96 96h960c53 0 96-43 96-96zM128 518.8c0-153 124.2-277 277-277 54.4 0 107.8 16.4 153 46.2-145.8 118.6-144.8 342.4 0 461-45.2 30-98.6 46.2-153 46.2-152.8 0.2-277-124-277-276.4zM576 301.2c141 110 140.4 324.4 0 435-140.4-110.6-141-325.2 0-435zM291.4 148.6c0 17.4-11.4 28.8-29.4 29.4-9.2 0-19-2.8-25.6-13-4.8 8.2-13 13-24.4 13-7.6 0-15.2-2.8-21.2-10.8v8.8h-16.4v-73.4h16.4c0 37.8-5 60.4 18 60.4 20.4 0 16.4-20.4 16.4-60.4h15.8c0 36.6-5 60.4 18 60.4 20.4 0 16.4-20 16.4-60.4h16.4v46zM381.2 176h-15.8v-8.8c-5.4 6.6-13 10.8-23.4 10.8-20.6 0-36.4-16.4-36.4-38.6 0-22.4 15.8-38.6 36.4-38.6 10.4 0 18 3.8 23.4 10.8v-9.2h15.8v73.6zM462.2 124.8c0 30-45.8 16.4-45.8 30.4 0 11.4 23.8 9.6 37 2.2l6.6 13c-18.8 12.2-60.4 12-60.4-16.4 0-28.6 45.8-16.6 45.8-30 0-12.6-27-11.6-41.4-1.6l-7-12.6c22.4-15.2 65.2-12 65.2 15zM533 106.2l-4.4 13.6c-7.6-4.2-24.4-8.8-24.4 8.2v33.2h26.2v14.8h-26.2v22.4h-16.4v-22.4h-15.2v-14.6h15.2v-33.4c0-35.2 34.6-28.8 45.2-21.8zM559.6 133h55c0 32.4-14.8 45.2-34.8 45.2-21.2 0-36.4-15.8-36.4-38.6 0-41 45.2-47.8 67.6-28.4l-7.6 12c-15.6-12.8-39.2-11.6-43.8 9.8zM677.8 176c-9.2 4-23.2 3.6-30.4-8.8v8.8h-16.4v-73.4h16.4v41.4c0 23.2 19 20.2 25.6 16.8l4.8 15.2zM699 139.4c0 22.8 23.2 30.2 41.4 16.8l7.6 13c-23.2 18.2-65.4 8.2-65.4-30 0-39.6 44.8-47.6 65.4-30l-7.6 13c-18.4-13-41.4-5.2-41.4 17.2zM832.4 176h-16.4v-8.8c-16.6 22-59.8 9.6-59.8-27.8 0-38.4 44.8-49.4 59.8-27.8v-9.2h16.4v73.6zM899.8 176c-4.8 2.4-22 5.8-30.4-8.8v8.8h-15.8v-73.4h15.8v41.4c0 22 18 20.6 25.6 16.8l4.8 15.2zM980.4 205.8h-15.8v-38.6c-16.4 21.8-59.8 10.2-59.8-27.8 0-38.8 45-49.2 59.8-27.8v-9.2h15.8v103.4zM995.6 356v-9.2h1.6v9.2h3.8v1.6h-9.2v-1.6h3.8zM1008.8 108.4c0 1 0 2.2-0.6 3.2-0.6 0.6-1 1.6-1.6 2.2s-1.6 1-2.2 1.6c-1 0-2.2 0.6-3.2 0.6-0.6 0-1.6-0.6-2.8-0.6-1-0.6-1.6-1-2.2-1.6-1-0.6-1.6-1.6-1.6-2.2-0.6-1-0.6-2.2-0.6-3.2 0-0.6 0-1.6 0.6-2.8 0-0.6 0.6-1.6 1.6-2.2 0.6-0.6 1-1 2.2-1.6 1-0.6 2.2-0.6 2.8-0.6 1 0 2.2 0 3.2 0.6 0.6 0.6 1.6 1 2.2 1.6s1 1.6 1.6 2.2c0.6 1.2 0.6 2.2 0.6 2.8zM1015.2 357.8h-2.8l-3.2-7-3.2 7h-2.8v-10.8h1.6v8.2l3.2-7h2.2l2.8 7v-8.2h2.2v10.8zM1024 518.8c0 152.4-124.2 276.6-277 276.6-54.4 0-107.8-16.4-153-46.2 144.2-118.6 146.4-343 0-461 45.2-30 99-46.2 153-46.2 152.8-0.2 277 123.8 277 276.8z" />
<glyph unicode="&#xe912;" glyph-name="cc-paypal" horiz-adv-x="1152" d="M372.6 443.6c0-24.4-19.4-43-44-43-18.4 0-32 10.4-32 30 0 24.4 19 44 43.4 44 18.6 0 32.6-11.4 32.6-31zM161 540.6h-9.4c-3 0-6-2-6.4-5.4l-8.6-53.4 16.4 0.6c22 0 39 3 43 28.4 4.6 26.8-12.4 29.8-35 29.8zM729 540.6h-9c-3.6 0-6-2-6.4-5.4l-8.4-53.4 16 0.6c26 0 44 6 44 36-0.2 21.2-19.2 22.2-36.2 22.2zM1152 800v-704c0-53-43-96-96-96h-960c-53 0-96 43-96 96v704c0 53 43 96 96 96h960c53 0 96-43 96-96zM256.6 529.2c0 42-32.4 56-69.4 56h-80c-5 0-10-4-10.4-9.4l-32.8-204.2c-0.6-4 2.4-8 6.4-8h38c5.4 0 10.4 5.8 11 11.4l9 53.2c2 14.4 26.4 9.4 36 9.4 57.2 0 92.2 34 92.2 91.6zM425 511.6h-38c-7.6 0-8-11-8.4-16.4-11.6 17-28.4 20-47.4 20-49 0-86.4-43-86.4-90.4 0-39 24.4-64.4 63.4-64.4 18 0 40.4 9.8 53 23.8-1-3-2-9.4-2-12.4 0-4.6 2-8 6.4-8h34.4c5.4 0 10 5.8 11 11.4l20.4 128.6c0.6 3.8-2.4 7.8-6.4 7.8zM506 315.8l127.4 185.2c1 1 1 2 1 3.4 0 3.4-3 7-6.4 7h-38.4c-3.4 0-7-2-9-5l-53-78-22 75c-1.6 4.4-6 8-11 8h-37.4c-3.4 0-6.4-3.6-6.4-7 0-2.4 39-113.6 42.4-124.2-5.4-7.6-41-57.2-41-63.2 0-3.6 3-6.4 6.4-6.4h38.4c3.6 0.2 7 2.2 9 5.2zM824.6 529.2c0 42-32.4 56-69.4 56h-79.4c-5.4 0-10.4-4-11-9.4l-32.4-204c-0.4-4 2.6-8 6.4-8h41c4 0 7 3 8 6.4l9 58c2 14.4 26.4 9.4 36 9.4 56.8 0 91.8 34 91.8 91.6zM993 511.6h-38c-7.6 0-8-11-8.6-16.4-11 17-28 20-47.4 20-49 0-86.4-43-86.4-90.4 0-39 24.4-64.4 63.4-64.4 18.6 0 41 9.8 53 23.8-0.6-3-2-9.4-2-12.4 0-4.6 2-8 6.4-8h34.6c5.4 0 10 5.8 11 11.4l20.4 128.6c0.6 3.8-2.4 7.8-6.4 7.8zM1088 578.2c0 4-3 7-6.4 7h-37c-3 0-6-2.4-6.4-5.4l-32.4-208-0.6-1c0-3.6 3-7 7-7h33c5 0 10 5.8 10.4 11.4l32.4 202.4v0.6zM908 474.6c-24.4 0-43.4-19.4-43.4-44 0-19.4 14-30 32.4-30 24 0 43.4 18.4 43.4 43 0.2 19.6-13.8 31-32.4 31z" />
<glyph unicode="&#xe913;" glyph-name="cc-visa" horiz-adv-x="1152" d="M940.2 497.4s15.2-74.4 18.6-90h-66.8c6.6 17.8 32 87 32 87-0.4-0.6 6.6 18.2 10.6 29.8l5.6-26.8zM1152 800v-704c0-53-43-96-96-96h-960c-53 0-96 43-96 96v704c0 53 43 96 96 96h960c53 0 96-43 96-96zM305 297.6l126.4 310.4h-85l-78.6-212-8.6 43-28 142.8c-4.6 19.8-18.8 25.4-36.4 26.2h-129.4l-1.4-6.2c31.6-8 59.8-19.6 84.4-34.2l71.6-270h85zM493.8 297.2l50.4 310.8h-80.4l-50.2-310.8h80.2zM773.6 398.8c0.4 35.4-21.2 62.4-67.4 84.6-28.2 14.2-45.4 23.8-45.4 38.4 0.4 13.2 14.6 26.8 46.2 26.8 26.2 0.6 45.4-5.6 59.8-11.8l7.2-3.4 11 67.2c-15.8 6.2-41 13.2-72 13.2-79.4 0-135.2-42.4-135.6-102.8-0.6-44.6 40-69.4 70.4-84.4 31-15.2 41.6-25.2 41.6-38.6-0.4-20.8-25.2-30.4-48.2-30.4-32 0-49.2 5-75.4 16.6l-10.6 5-11.2-69.8c18.8-8.6 53.6-16.2 89.6-16.6 84.4-0.2 139.4 41.6 140 106zM1056 297.2l-64.8 310.8h-62.2c-19.2 0-33.8-5.6-42-25.8l-119.4-285h84.4s13.8 38.4 16.8 46.6h103.2c2.4-11 9.6-46.6 9.6-46.6h74.4z" />
<glyph unicode="&#xe914;" glyph-name="css3-alt" horiz-adv-x="768" d="M0 896l69.8-791.6 314.2-104.4 314.2 104.4 69.8 791.6h-768zM626.2 736l-9.6-94.6-231.2-98.8h223l-25.6-293.2-196.4-57.4-197.6 58.4-12.8 147.8h97.8l6.4-76.6 105.2-26.6 109.4 30.8 7.4 123.2-333 1-7.2 92.6 237.2 98.8h-245.8l-11.6 94.6h484.4z" />
<glyph unicode="&#xe915;" glyph-name="facebook-messenger" d="M513.1 944c-280.060 0-497.1-204.68-497.1-481.14 0-144.6 59.42-269.56 156.14-355.88 16.7-15.020 13.26-23.72 16.1-116.46 0.76-21.405 18.295-38.469 39.816-38.469 5.767 0 11.248 1.225 16.197 3.43l-0.253-0.101c105.82 46.6 107.18 50.28 125.12 45.4 306.58-84.38 638.88 111.82 638.88 462.080 0 276.46-214.82 481.14-494.9 481.14zM811.58 573.74l-146-231.14c-13.469-20.994-36.69-34.705-63.113-34.705-16.85 0-32.397 5.576-44.898 14.983l0.191-0.138-116.16 86.94c-4.951 3.746-11.212 6-18 6s-13.049-2.254-18.075-6.055l0.075 0.055-156.74-118.88c-20.92-15.86-48.32 9.2-34.22 31.34l146 231.14c13.464 20.998 36.684 34.714 63.108 34.714 16.853 0 32.403-5.579 44.903-14.992l-0.191 0.138 116.12-86.92c4.951-3.746 11.212-6 18-6s13.049 2.254 18.075 6.055l-0.075-0.055 156.82 118.76c20.88 15.96 48.28-9.080 34.18-31.24z" />
<glyph unicode="&#xe916;" glyph-name="bell-solid" horiz-adv-x="896" d="M448-64c70.64 0 127.94 57.3 127.94 128h-255.88c0-70.7 57.3-128 127.94-128zM878.78 235.42c-38.64 41.52-110.94 103.98-110.94 308.58 0 155.4-108.96 279.8-255.88 310.32v41.68c0 35.34-28.64 64-63.96 64s-63.96-28.66-63.96-64v-41.68c-146.92-30.52-255.88-154.92-255.88-310.32 0-204.6-72.3-267.060-110.94-308.58-12-12.9-17.32-28.32-17.22-43.42 0.22-32.8 25.96-64 64.2-64h767.6c38.24 0 64 31.2 64.2 64 0.1 15.1-5.22 30.54-17.22 43.42z" />
<glyph unicode="&#xe917;" glyph-name="dolly-solid" horiz-adv-x="1152" d="M588.4 404.6c36-10 69.4-26.8 99-49.4l323 107.6c16.8 5.6 25.8 23.8 20.2 40.4l-120.8 362.4c-5.6 16.8-23.8 25.8-40.4 20.2l-122.2-40.8 66.2-198.8-121.4-40.2-66.2 198.8-123.2-41c-16.8-5.6-25.8-23.8-20.2-40.4l106-318.8zM1150.4 307.2l-20.4 60.8c-5.6 16.8-23.8 25.8-40.4 20.2l-427-142.4c-34.4 44-87.2 72.8-147 74l-198.8 596.4c-8.8 26.2-33.2 43.8-60.8 43.8h-224c-17.6 0-32-14.4-32-32v-64c0-17.6 14.4-32 32-32h177.8l184.4-553.4c-52.2-40.8-83.4-107.2-72-181 12.2-78.8 75.8-144.6 154.6-158.4 120.4-21.4 224.6 69.6 226.8 185.2l426.6 142.4c16.6 5.6 25.8 23.6 20.2 40.4zM512 32c-53 0-96 43-96 96s43 96 96 96 96-43 96-96-43-96-96-96z" />
<glyph unicode="&#xe918;" glyph-name="google-pay" horiz-adv-x="1280" d="M211.44 530v-82.5h114.2c-4.901-27.29-20.372-50.271-41.937-64.979l-0.343-0.221c-19.080-13.1-43.44-20.56-72-20.56-55.2 0-101.86 37.82-118.6 88.44-4.165 12.24-6.57 26.339-6.57 41s2.404 28.76 6.84 41.925l-0.271-0.925c16.74 50.92 63.4 88.74 118.6 88.74 0.625 0.012 1.363 0.020 2.102 0.020 30.727 0 58.586-12.28 78.938-32.199l-0.020 0.020 60.56 61.24c-36.236 34.479-85.374 55.69-139.467 55.69-0.715 0-1.429-0.004-2.143-0.011l0.109 0.001c-82.457-0.327-153.73-47.878-188.208-116.996l-0.552-1.224c-14.3-28.024-22.68-61.124-22.68-96.18s8.379-68.156 23.244-97.404l-0.565 1.224v-0.3c35.037-70.297 106.327-117.787 188.731-118h0.029c56.94 0 105.1 19.060 140 51.82 40 37.22 62.82 92.3 62.82 157.82 0 0.126 0 0.276 0 0.426 0 15.232-1.273 30.167-3.719 44.704l0.218-1.57zM990.26 538c-20.26 18.76-47.86 28.28-82.78 28.28-44.92 0-78.68-16.68-101-49.72l41.7-26.52q22.9 34 62.52 34c17.538-0.044 33.511-6.711 45.557-17.631l-0.057 0.051c11.893-10.367 19.369-25.54 19.38-42.458v-11.022c-18.2 10.14-41.1 15.5-69.28 15.5-32.88 0-59.3-7.76-78.98-23.54s-29.64-36.62-29.64-63.12c-0.017-0.615-0.027-1.339-0.027-2.065 0-24.163 10.783-45.808 27.799-60.385l0.108-0.090c18.5-16.68 42-25.020 69.58-25.020 32.58 0 58.42 14.6 78 43.78h2v-35.44h45.22v157.4c0.14 33.1-9.84 59.32-30.1 78zM951.8 359.4c-13.53-13.759-32.336-22.293-53.135-22.32h-0.005c-0.284-0.005-0.618-0.008-0.953-0.008-13.557 0-26.013 4.715-35.818 12.595l0.111-0.087c-9.478 7.157-15.54 18.403-15.54 31.065 0 0.068 0 0.137 0.001 0.205v-0.011c0 14 6.44 25.62 19.080 34.84s29.060 14 48.14 14c26.32 0.32 46.92-5.68 61.6-17.56 0-20.26-7.92-37.82-23.48-52.72zM764.5 643.4c-20.162 20.156-48.012 32.623-78.774 32.623-0.79 0-1.577-0.008-2.363-0.025l0.117 0.002h-125.34v-373.48h47.26v151.28h78c32 0 59 10.72 81.020 31.86 1.76 1.78 3.52 3.58 5.3 5.36 17.737 19.308 28.609 45.17 28.609 73.57 0 31.021-12.971 59.013-33.785 78.848l-0.044 0.042zM731.34 518.94c-11.214-11.948-27.106-19.391-44.736-19.391-0.684 0-1.365 0.011-2.043 0.033l0.099-0.003h-79.26v130.42h79.26c0.069 0 0.15 0 0.232 0 17.531 0 33.416-7.049 44.975-18.467l-0.006 0.006c12.067-12.018 19.534-28.648 19.534-47.021 0-17.627-6.873-33.649-18.084-45.532l0.030 0.033zM1228.62 558l-73.080-183.4h-0.9l-74.84 183.4h-51.38l103.58-239.1-58.7-128.64h48.7l158 367.74z" />
<glyph unicode="&#xe919;" glyph-name="edit-solid" horiz-adv-x="1152" d="M805.2 793.6l180.4-180.4c7.6-7.6 7.6-20 0-27.6l-436.8-436.8-185.6-20.6c-24.8-2.8-45.8 18.2-43 43l20.6 185.6 436.8 436.8c7.6 7.6 20 7.6 27.6 0zM1129.2 839.4l-97.6 97.6c-30.4 30.4-79.8 30.4-110.4 0l-70.8-70.8c-7.6-7.6-7.6-20 0-27.6l180.4-180.4c7.6-7.6 20-7.6 27.6 0l70.8 70.8c30.4 30.6 30.4 80 0 110.4zM768 267.6v-203.6h-640v640h459.6c6.4 0 12.4 2.6 17 7l80 80c15.2 15.2 4.4 41-17 41h-571.6c-53 0-96-43-96-96v-704c0-53 43-96 96-96h704c53 0 96 43 96 96v315.6c0 21.4-25.8 32-41 17l-80-80c-4.4-4.6-7-10.6-7-17z" />
<glyph unicode="&#xe91a;" glyph-name="instagram" horiz-adv-x="896" d="M448.2 678c-127.2 0-229.8-102.6-229.8-229.8s102.6-229.8 229.8-229.8 229.8 102.6 229.8 229.8-102.6 229.8-229.8 229.8zM448.2 298.8c-82.2 0-149.4 67-149.4 149.4s67 149.4 149.4 149.4 149.4-67 149.4-149.4-67.2-149.4-149.4-149.4zM741 687.4c0-29.8-24-53.6-53.6-53.6-29.8 0-53.6 24-53.6 53.6s24 53.6 53.6 53.6 53.6-24 53.6-53.6zM893.2 633c-3.4 71.8-19.8 135.4-72.4 187.8-52.4 52.4-116 68.8-187.8 72.4-74 4.2-295.8 4.2-369.8 0-71.6-3.4-135.2-19.8-187.8-72.2s-68.8-116-72.4-187.8c-4.2-74-4.2-295.8 0-369.8 3.4-71.8 19.8-135.4 72.4-187.8s116-68.8 187.8-72.4c74-4.2 295.8-4.2 369.8 0 71.8 3.4 135.4 19.8 187.8 72.4 52.4 52.4 68.8 116 72.4 187.8 4.2 74 4.2 295.6 0 369.6zM797.6 184c-15.6-39.2-45.8-69.4-85.2-85.2-59-23.4-199-18-264.2-18s-205.4-5.2-264.2 18c-39.2 15.6-69.4 45.8-85.2 85.2-23.4 59-18 199-18 264.2s-5.2 205.4 18 264.2c15.6 39.2 45.8 69.4 85.2 85.2 59 23.4 199 18 264.2 18s205.4 5.2 264.2-18c39.2-15.6 69.4-45.8 85.2-85.2 23.4-59 18-199 18-264.2s5.4-205.4-18-264.2z" />
<glyph unicode="&#xe91b;" glyph-name="linkedin-in" horiz-adv-x="896" d="M200.56 64h-185.76v598.2h185.76zM107.58 743.8c-59.4 0-107.58 49.2-107.58 108.6 0 59.415 48.165 107.58 107.58 107.58s107.58-48.165 107.58-107.58v0c0-59.4-48.2-108.6-107.58-108.6zM895.8 64h-185.36v291.2c0 69.4-1.4 158.4-96.58 158.4-96.58 0-111.38-75.4-111.38-153.4v-296.2h-185.56v598.2h178.16v-81.6h2.6c24.8 47 85.38 96.6 175.76 96.6 188 0 222.56-123.8 222.56-284.6v-328.6z" />
<glyph unicode="&#xe91c;" glyph-name="envelope-regular" d="M928 832h-832c-53.020 0-96-42.98-96-96v-576c0-53.020 42.98-96 96-96h832c53.020 0 96 42.98 96 96v576c0 53.020-42.98 96-96 96zM928 736v-81.61c-44.844-36.518-116.336-93.302-269.174-212.98-33.682-26.494-100.402-90.144-146.826-89.402-46.416-0.75-113.158 62.918-146.826 89.402-152.814 119.66-224.324 176.456-269.174 212.98v81.61h832zM96 160v371.204c45.828-36.502 110.818-87.724 209.876-165.292 43.714-34.41 120.268-110.372 206.124-109.91 85.434-0.462 161.018 74.398 206.106 109.894 99.056 77.566 164.064 128.802 209.894 165.306v-371.202h-832z" />
<glyph unicode="&#xe91d;" glyph-name="paypal" horiz-adv-x="768" d="M222.8 368.2c-7-38.4-34.8-217.4-43-268-0.6-3.6-2-5-6-5h-149.2c-15.2 0-26.2 13.2-24.2 27.8l117.2 743.8c3 19.2 20.2 33.8 40 33.8 304.6 0 330.2 7.4 408-22.8 120.2-46.6 131.2-159 88-280.6-43-125.2-145-179-280.2-180.6-86.8-1.4-139 14-150.6-48.4zM714.2 656c-3.6 2.6-5 3.6-6-2.6-4-22.8-10.2-45-17.6-67.2-79.8-227.6-301-207.8-409-207.8-12.2 0-20.2-6.6-21.8-18.8-45.2-280.8-54.2-339.4-54.2-339.4-2-14.2 7-25.8 21.2-25.8h127c17.2 0 31.4 12.6 34.8 29.8 1.4 10.8-2.2-12.2 28.8 182.6 9.2 44 28.6 39.4 58.6 39.4 142 0 252.8 57.6 285.8 224.6 13 69.6 9.2 142.8-47.6 185.2z" />
<glyph unicode="&#xe91e;" glyph-name="star-half-solid" horiz-adv-x="1152" d="M576 960c-22.8 0-45.6-11.8-57.4-35.6l-130.6-264.8-292.2-42.4c-52.4-7.6-73.4-72.2-35.4-109.2l211.4-206-50-291c-9-52.2 46-92 92.8-67.4l261.4 137.2v879.2z" />
<glyph unicode="&#xe91f;" glyph-name="star-half-alt-solid" horiz-adv-x="1072" d="M1017.1 616.98l-292.74 42.62-130.82 264.78c-11.76 23.66-34.7 35.62-57.64 35.62-22.8 0-45.58-11.8-57.38-35.62l-130.86-264.76-292.76-42.58c-52.5-7.6-73.54-72.18-35.48-109.18l211.78-206-50.12-290.96c-7.12-41.56 26.060-74.9 63.22-74.9 9.86 0 20 2.34 29.74 7.5l261.9 137.36 261.88-137.4c9.72-5.1 19.84-7.42 29.66-7.42 37.2 0 70.44 33.22 63.32 74.8l-50.060 290.98 211.82 205.96c38.080 37 17.040 101.6-35.46 109.2zM773.62 370.58l-36.24-35.24 47.6-276.66-249.020 130.66 0.060 634.38 124.42-251.84 278.48-40.54-165.3-160.76z" />
<glyph unicode="&#xe920;" glyph-name="skype" horiz-adv-x="896" d="M849.4 360.4c5.8 28 9.4 57.8 9.4 87.6 0 227-183.8 410.6-410.6 410.6-29.8 0-59.4-3.4-87.6-9.4-38 29.4-85.2 46.8-136.6 46.8-123.6 0-224-100.4-224-224 0-51.4 17.4-98.6 46.6-136.4-5.8-28-9.4-57.8-9.4-87.6 0-227 183.8-410.6 410.6-410.6 29.8 0 59.4 3.4 87.6 9.4 38-29.2 85.2-46.6 136.4-46.6 123.6 0 224 100.4 224 224 0.2 51.2-17.2 98.4-46.4 136.2zM460.2 177.4c-131.2 0-241 58.4-241 130 0 32 18 61.2 59 61.2 62.4 0 68.2-89.8 176.2-89.8 51.4 0 84.6 22.8 84.6 52.6 0 37.4-32 43.2-84 56-125 30.8-235.6 44-235.6 174.4 0 118.4 117.2 162.2 218.2 162.2 110.2 0 221.6-43.8 221.6-110.8 0-33.8-22.8-63.6-60.6-63.6-56.6 0-58.4 67-150 67-51.4 0-84-14-84-45 0-39.6 41.6-43.6 138.2-66 82.8-18.6 181.4-53.6 181.4-155.2 0-118.2-114.2-173-224-173z" />
<glyph unicode="&#xe921;" glyph-name="telegram-plane" horiz-adv-x="896" d="M893.4 762.8l-135.2-637.6c-10.2-45-36.8-56.2-74.6-35l-206 151.8-99.4-95.6c-11-11-20.2-20.2-41.4-20.2l14.8 209.8 381.8 345c16.6 14.8-3.6 23-25.8 8.2l-472-297.2-203.2 63.6c-44.2 13.8-45 44.2 9.2 65.4l794.8 306.2c36.8 13.8 69-8.2 57-64.4z" />
<glyph unicode="&#xe922;" glyph-name="telegram" horiz-adv-x="992" d="M496 944c-274 0-496-222-496-496s222-496 496-496 496 222 496 496-222 496-496 496zM739.6 604.2l-81.4-383.6c-6-27.2-22.2-33.8-44.8-21l-124 91.4-59.8-57.6c-6.6-6.6-12.2-12.2-25-12.2l8.8 126.2 229.8 207.6c10 8.8-2.2 13.8-15.4 5l-284-178.8-122.4 38.2c-26.6 8.4-27.2 26.6 5.6 39.4l478.2 184.4c22.2 8 41.6-5.4 34.4-39z" />
<glyph unicode="&#xe923;" glyph-name="twitter-square" horiz-adv-x="896" d="M800 896h-704c-53 0-96-43-96-96v-704c0-53 43-96 96-96h704c53 0 96 43 96 96v704c0 53-43 96-96 96zM702.2 578.4c0.4-5.6 0.4-11.4 0.4-17 0-173.4-132-373.2-373.2-373.2-74.4 0-143.4 21.6-201.4 58.8 10.6-1.2 20.8-1.6 31.6-1.6 61.4 0 117.8 20.8 162.8 56-57.6 1.2-106 39-122.6 91 20.2-3 38.4-3 59.2 2.4-60 12.2-105 65-105 128.8v1.6c17.4-9.8 37.8-15.8 59.2-16.6-35.411 23.8-58.4 63.708-58.4 108.986 0 0.075 0 0.151 0 0.226v-0.012c0 24.4 6.4 46.8 17.8 66.2 64.6-79.6 161.6-131.6 270.4-137.2-18.6 89 48 161.2 128 161.2 37.8 0 71.8-15.8 95.8-41.4 29.6 5.6 58 16.6 83.2 31.6-9.8-30.4-30.4-56-57.6-72.2 26.4 2.8 52 10.2 75.6 20.4-17.8-26.2-40.2-49.4-65.8-68z" />
<glyph unicode="&#xe924;" glyph-name="twitter" d="M918.74 656.568c0.65-9.096 0.65-18.194 0.65-27.29 0-277.44-211.166-597.116-597.116-597.116-118.904 0-229.36 34.438-322.274 94.212 16.894-1.948 33.136-2.598 50.68-2.598 98.11 0 188.426 33.136 260.548 89.664-92.264 1.95-169.584 62.376-196.224 145.544 12.996-1.948 25.99-3.248 39.636-3.248 18.842 0 37.686 2.6 55.228 7.146-96.162 19.494-168.286 103.96-168.286 205.97v2.598c27.938-15.594 60.428-25.34 94.862-26.638-56.528 37.686-93.562 102.010-93.562 174.782 0 38.984 10.394 74.72 28.588 105.908 103.31-127.35 258.6-210.516 432.73-219.614-3.248 15.594-5.198 31.836-5.198 48.080 0 115.656 93.564 209.868 209.868 209.868 60.426 0 115.004-25.34 153.34-66.274 47.43 9.096 92.912 26.64 133.198 50.68-15.596-48.732-48.732-89.666-92.264-115.654 42.234 4.546 83.168 16.244 120.852 32.486-28.584-41.582-64.322-78.616-105.256-108.506z" />
<glyph unicode="&#xe925;" glyph-name="ups" horiz-adv-x="768" d="M206.4 354c-10.4-7.2-65.2-26.2-65.2 38v208h-65.4v-205.2c0-149.8 160.4-102.2 195.8-78v283.2h-65.2zM8 810.36v-441.8c0-207.4 149.8-270.4 375.4-368.2 224.8 97.8 375.4 160.4 375.4 368.2v441.8c-232.6 123.2-563.6 99.2-750.8 0zM724.2 368.56c0-173.2-106.4-227.2-340.8-330.6-235 103.6-341 157.4-341 330.6v252.8c204.6 187.6 463.2 200 681.8 179.6zM305 583.36v-425.6h65.4v137.4c48.8-14.6 143.4 5.2 143.4 157 0 194.8-161.4 161.84-208.8 131.2zM370.4 348.76v200.6c16.8 8.4 76.8 25.4 76.8-98.6 0-135.8-72.8-103.6-76.8-102zM528.6 521.56c0.2-94.6 103.2-85 104.4-140.8 1.2-47-60.8-46-101.6-9.8v-60.2c72.4-43 163.8-16.2 166.4 67 3.4 103-108.2 93.2-106.8 146.4 1.2 40.6 61.2 41 97 4.4v56.8c-57 44-159.8 18.4-159.4-63.8z" />
<glyph unicode="&#xe926;" glyph-name="whatsapp-square" horiz-adv-x="896" d="M448 714.4c-145.4 0-263.6-118.2-263.8-263.6 0-49.8 14-98.4 40.4-140.2l6.2-10-26.6-97.2 99.8 26.2 9.6-5.8c40.4-24 86.8-36.8 134.2-36.8h0.2c145.2 0 266.6 118.2 266.6 263.6 0 70.4-30.4 136.6-80.2 186.4-50 50-116 77.4-186.4 77.4zM603 337.6c-6.6-18.6-38.2-35.4-53.4-37.6-25.2-3.8-44.8-1.8-95 19.8-79.4 34.4-131.4 114.4-135.4 119.6s-32.4 43-32.4 82 20.4 58.2 27.8 66.2c7.2 8 15.8 10 21.2 10 5.2 0 10.6 0 15.2-0.2 4.8-0.2 11.4 1.8 17.8-13.6 6.6-15.8 22.4-54.8 24.4-58.8s3.4-8.6 0.6-13.8c-15.2-30.4-31.4-29.2-23.2-43.2 30.6-52.6 61.2-70.8 107.8-94.2 8-4 12.6-3.4 17.2 2 4.6 5.2 19.8 23.2 25 31 5.2 8 10.6 6.6 17.8 4s46.2-21.8 54.2-25.8 13.2-6 15.2-9.2c1.8-3.8 1.8-19.8-4.8-38.2zM800 896h-704c-53 0-96-43-96-96v-704c0-53 43-96 96-96h704c53 0 96 43 96 96v704c0 53-43 96-96 96zM447.8 133.6c-53.2 0-105.4 13.4-151.6 38.6l-168.2-44.2 45 164.4c-27.8 48-42.4 102.6-42.4 158.6 0.2 174.8 142.4 317 317.2 317 84.8 0 164.4-33 224.4-93 59.8-60 95.8-139.6 95.8-224.4 0-174.8-145.4-317-320.2-317z" />
<glyph unicode="&#xe927;" glyph-name="whatsapp" horiz-adv-x="896" d="M761.8 765.8c-83.8 84-195.4 130.2-314 130.2-244.8 0-444-199.2-444-444 0-78.2 20.4-154.6 59.2-222l-63-230 235.4 61.8c64.8-35.4 137.8-54 212.2-54h0.2c244.6 0 448.2 199.2 448.2 444 0 118.6-50.4 230-134.2 314zM447.8 82.6c-66.4 0-131.4 17.8-188 51.4l-13.4 8-139.6-36.6 37.2 136.2-8.8 14c-37 58.8-56.4 126.6-56.4 196.4 0 203.4 165.6 369 369.2 369 98.6 0 191.2-38.4 260.8-108.2s112.4-162.4 112.2-261c0-203.6-169.8-369.2-373.2-369.2zM650.2 359c-11 5.6-65.6 32.4-75.8 36-10.2 3.8-17.6 5.6-25-5.6s-28.6-36-35.2-43.6c-6.4-7.4-13-8.4-24-2.8-65.2 32.6-108 58.2-151 132-11.4 19.6 11.4 18.2 32.6 60.6 3.6 7.4 1.8 13.8-1 19.4s-25 60.2-34.2 82.4c-9 21.6-18.2 18.6-25 19-6.4 0.4-13.8 0.4-21.2 0.4s-19.4-2.8-29.6-13.8c-10.2-11.2-38.8-38-38.8-92.6s39.8-107.4 45.2-114.8c5.6-7.4 78.2-119.4 189.6-167.6 70.4-30.4 98-33 133.2-27.8 21.4 3.2 65.6 26.8 74.8 52.8s9.2 48.2 6.4 52.8c-2.6 5-10 7.8-21 13.2z" />
<glyph unicode="&#xe928;" glyph-name="arrow-alt-circle-left" d="M16 448c0-274 222-496 496-496s496 222 496 496-222 496-496 496-496-222-496-496zM912 448c0-221-179-400-400-400s-400 179-400 400 179 400 400 400 400-179 400-400zM768 488v-80c0-13.2-10.8-24-24-24h-232v-134c0-21.4-25.8-32-41-17l-198 198c-9.4 9.4-9.4 24.6 0 34l198 198c15.2 15.2 41 4.4 41-17v-134h232c13.2 0 24-10.8 24-24z" />
<glyph unicode="&#xe929;" glyph-name="arrow-alt-circle-right" d="M1008 448c0 274-222 496-496 496s-496-222-496-496 222-496 496-496 496 222 496 496zM112 448c0 221 179 400 400 400s400-179 400-400-179-400-400-400-400 179-400 400zM256 408v80c0 13.2 10.8 24 24 24h232v134c0 21.4 25.8 32 41 17l198-198c9.4-9.4 9.4-24.6 0-34l-198-198c-15.2-15.2-41-4.4-41 17v134h-232c-13.2 0-24 10.8-24 24z" />
<glyph unicode="&#xe92a;" glyph-name="building" horiz-adv-x="896" d="M256 664v80c0 13.2 10.8 24 24 24h80c13.2 0 24-10.8 24-24v-80c0-13.2-10.8-24-24-24h-80c-13.2 0-24 10.8-24 24zM536 640h80c13.2 0 24 10.8 24 24v80c0 13.2-10.8 24-24 24h-80c-13.2 0-24-10.8-24-24v-80c0-13.2 10.8-24 24-24zM280 448h80c13.2 0 24 10.8 24 24v80c0 13.2-10.8 24-24 24h-80c-13.2 0-24-10.8-24-24v-80c0-13.2 10.8-24 24-24zM536 448h80c13.2 0 24 10.8 24 24v80c0 13.2-10.8 24-24 24h-80c-13.2 0-24-10.8-24-24v-80c0-13.2 10.8-24 24-24zM384 280v80c0 13.2-10.8 24-24 24h-80c-13.2 0-24-10.8-24-24v-80c0-13.2 10.8-24 24-24h80c13.2 0 24 10.8 24 24zM536 256h80c13.2 0 24 10.8 24 24v80c0 13.2-10.8 24-24 24h-80c-13.2 0-24-10.8-24-24v-80c0-13.2 10.8-24 24-24zM896 8v-72h-896v72c0 13.2 10.8 24 24 24h39v880c0 26.6 21.4 48 48 48h674c26.6 0 48-21.4 48-48v-880h39c13.2 0 24-10.8 24-24zM159 34h225v134c0 13.2 10.8 24 24 24h80c13.2 0 24-10.8 24-24v-134h225v828l-577 2-1-830z" />
<glyph unicode="&#xe92b;" glyph-name="check-circle" d="M512 944c-273.934 0-496-222.066-496-496s222.066-496 496-496 496 222.066 496 496-222.066 496-496 496zM512 848c221.064 0 400-178.902 400-400 0-221.064-178.902-400-400-400-221.064 0-400 178.902-400 400 0 221.064 178.902 400 400 400zM792.408 587.466l-45.072 45.436c-9.334 9.41-24.53 9.472-33.94 0.136l-282.704-280.432-119.584 120.554c-9.334 9.41-24.53 9.472-33.94 0.138l-45.438-45.072c-9.41-9.334-9.472-24.53-0.136-33.942l181.562-183.032c9.334-9.41 24.53-9.472 33.94-0.136l345.178 342.408c9.408 9.336 9.468 24.532 0.134 33.942z" />
<glyph unicode="&#xe92c;" glyph-name="comments" horiz-adv-x="1152" d="M1064 187.6c55 54.2 88 122.2 88 196.4 0 160-153 292.2-352.4 315.8-63 115.2-211 196.2-383.6 196.2-229.8 0-416-143.2-416-320 0-74 33-142 88-196.4-30.6-61.4-74.6-109-75.4-109.8-12.6-13.4-16.2-33-8.8-50 7.2-17 24-28 42.4-28 107 0 193.4 40.4 250.4 77.6 18.4-4.2 37.4-7.4 56.8-9.8 62.8-114.8 210.2-195.6 382.6-195.6 41.6 0 81.6 4.8 119.6 13.6 57-37 143.2-77.6 250.4-77.6 18.4 0 35 11 42.4 28 7.2 17 3.8 36.6-8.8 50-0.8 0.6-45 48.2-75.6 109.6zM278.4 372.2l-34.2-22.2c-28.2-18.2-57-32.6-86.2-42.8 5.4 9.4 10.8 19.4 16 29.6l31 62.2-49.6 49c-27 26.8-59.4 70.6-59.4 128 0 121.4 146.6 224 320 224s320-102.6 320-224-146.6-224-320-224c-33 0-66 3.8-98 11.2l-39.6 9zM996.6 256l-49.4-48.8 31-62.2c5.2-10.2 10.6-20.2 16-29.6-29.2 10.2-58 24.6-86.2 42.8l-34.2 22.2-39.8-9.2c-32-7.4-65-11.2-98-11.2-108 0-204.4 40.2-262.6 99.4 202.6 21.6 358.6 154.8 358.6 316.6 0 6.8-0.8 13.4-1.4 20 128.8-29 225.4-113.6 225.4-212 0-57.4-32.4-101.2-59.4-128z" />
<glyph unicode="&#xe92d;" glyph-name="credit-card" horiz-adv-x="1152" d="M1055.8 896h-959.6c-53.2 0-96.2-43-96.2-96v-704c0-53 43-96 96.2-96h959.6c53.2 0 96.2 43 96.2 96v704c0 53-43 96-96.2 96zM108.2 800h935.6c6.6 0 12-5.4 12-12v-84h-959.6v84c0 6.6 5.4 12 12 12zM1043.8 96h-935.6c-6.6 0-12 5.4-12 12v340h959.6v-340c0-6.6-5.4-12-12-12zM384 296v-80c0-13.2-10.8-24-24-24h-144c-13.2 0-24 10.8-24 24v80c0 13.2 10.8 24 24 24h144c13.2 0 24-10.8 24-24zM768 296v-80c0-13.2-10.8-24-24-24h-272c-13.2 0-24 10.8-24 24v80c0 13.2 10.8 24 24 24h272c13.2 0 24-10.8 24-24z" />
<glyph unicode="&#xe92e;" glyph-name="envelope" d="M928 832h-832c-53.020 0-96-42.98-96-96v-576c0-53.020 42.98-96 96-96h832c53.020 0 96 42.98 96 96v576c0 53.020-42.98 96-96 96zM928 736v-81.61c-44.844-36.518-116.336-93.302-269.174-212.98-33.682-26.494-100.402-90.144-146.826-89.402-46.416-0.75-113.158 62.918-146.826 89.402-152.814 119.66-224.324 176.456-269.174 212.98v81.61h832zM96 160v371.204c45.828-36.502 110.818-87.724 209.876-165.292 43.714-34.41 120.268-110.372 206.124-109.91 85.434-0.462 161.018 74.398 206.106 109.894 99.056 77.566 164.064 128.802 209.894 165.306v-371.202h-832z" />
<glyph unicode="&#xe92f;" glyph-name="eye" horiz-adv-x="1152" d="M576 672c-22.421-0.361-43.864-3.991-64.051-10.433l1.571 0.433c8.982-15.522 14.338-34.12 14.48-53.959v-0.041c0-61.856-50.144-112-112-112v0c-19.88 0.142-38.478 5.498-54.535 14.765l0.535-0.285c-5.551-18.541-8.746-39.847-8.746-61.899 0-123.391 100.029-223.42 223.42-223.42s223.42 100.029 223.42 223.42c0 123.391-100.029 223.42-223.42 223.42-0.237 0-0.474 0-0.711-0.001h0.037zM1145.040 477.2c-108.46 211.62-323.18 354.8-569.040 354.8s-460.64-143.28-569.040-354.82c-4.387-8.495-6.959-18.542-6.959-29.19s2.572-20.695 7.129-29.553l-0.17 0.363c108.46-211.62 323.18-354.8 569.040-354.8s460.64 143.28 569.040 354.82c4.387 8.495 6.959 18.542 6.959 29.19s-2.572 20.695-7.129 29.553l0.17-0.363zM576 160c-197.3 0-378.18 110-475.86 288 97.68 178 278.54 288 475.86 288s378.18-110 475.86-288c-97.66-178-278.54-288-475.86-288z" />
<glyph unicode="&#xe930;" glyph-name="hand-paper" horiz-adv-x="896" d="M745.14 734.718v21.65c0 87.224-81.040 153.382-166.078 131.092-51.258 99-188.18 94.9-235.964-1.494-82.56 21.122-164.81-41.856-164.81-129.966v-252.26c-39.906 14.854-86.616 10.136-124.166-17.742-58.71-43.592-71.588-126.666-29.1-186.306l239.938-336.83c11.748-16.344 30.707-26.864 52.124-26.864h445.794c29.808 0 55.67 20.578 62.364 49.626l60.368 261.916c6.597 27.438 10.384 58.941 10.39 91.328v263.132c0 81.24-71.046 143.984-150.86 132.718zM799.994 338.874c0-23.462-2.668-46.938-7.93-69.772l-54.65-237.102h-403.84l-230.392 323.394c-28.878 40.54 30.046 85.552 58.788 45.21l54.256-76.158c17.99-25.252 58.062-12.574 58.062 18.566v412.988c0 51.29 73.142 49.62 73.142-1.382v-306.618c0-17.674 14.326-32 32-32h13.712c17.674 0 32 14.326 32 32v378c0 51.326 73.142 49.62 73.142-1.382v-376.618c0-17.674 14.326-32 32-32h13.712c17.674 0 32 14.326 32 32v309.75c0 51.344 73.14 49.62 73.14-1.382v-308.368c0-17.674 14.326-32 32-32h13.714c17.674 0 32 14.326 32 32v152.618c0 52.484 73.14 51.28 73.14 1.382v-263.126z" />
<glyph unicode="&#xe931;" glyph-name="map" horiz-adv-x="1152" d="M1120.040 896c-3.92 0-7.96-0.74-11.92-2.32l-340.12-125.68-344 121.44c-12.080 4.153-25.998 6.554-40.477 6.56h-0.003c-13.38 0-26.74-2.1-39.62-6.28l-303.66-105.62c-23.779-9.697-40.234-32.636-40.24-59.419v-692.641c0-18.38 15.060-32.040 31.98-32.040 3.92 0 7.94 0.74 11.92 2.32l340.1 125.68 344-121.42c12.086-4.171 26.015-6.58 40.505-6.58 14.154 0 27.771 2.298 40.498 6.541l-0.903-0.261 303.66 105.62c23.782 9.693 40.24 32.634 40.24 59.42v0 692.64c0 18.38-15.060 32.040-31.96 32.040zM448 779.16l256-90.38v-571.94l-256 90.38v571.94zM96 123.9v577.96l256 89.060v-572.4l-1.28-0.46-254.72-94.16zM1056 194.16l-256-89.060v572.38l1.28 0.48 254.72 94.14v-577.94z" />
<glyph unicode="&#xe932;" glyph-name="paper-plane" d="M880 947l-832-479.8c-68.8-39.8-62.2-141.6 11.4-171.8l228.6-94.6v-168.8c0-92.8 118.4-131 173.2-57.2l87.6 118.2 223.8-92.4c11.8-4.8 24.2-7.2 36.6-7.2 16.4 0 32.6 4.2 47.2 12.4 25.6 14.4 43.2 40 47.8 69l118.8 774.4c12.2 80.2-73.8 137.6-143 97.8zM384 32v129.2l73.2-30.2-73.2-99zM809.2 89.4l-307.6 127 280.4 404.6c21.4 31-19 67-47.4 42.4l-423-368.6-215.6 89.2 832 480-118.8-774.6z" />
<glyph unicode="&#xe933;" glyph-name="star-half" horiz-adv-x="1152" d="M576 189.4l-248.6-130.8 47.4 276.8-201.2 196 278 40.4 124.4 252v136.2c-22.8 0-45.6-11.8-57.4-35.6l-130.6-264.8-292.2-42.4c-52.4-7.6-73.4-72.2-35.4-109.2l211.4-206-50-291c-9-52.2 46-92 92.8-67.4l261.4 137.2v108.6z" />
<glyph unicode="&#xe934;" glyph-name="star" horiz-adv-x="1152" d="M1056.2 617l-292.2 42.6-130.6 264.8c-23.4 47.2-91.2 47.8-114.8 0l-130.6-264.8-292.2-42.6c-52.4-7.6-73.4-72.2-35.4-109.2l211.4-206-50-291c-9-52.6 46.4-92 92.8-67.4l261.4 137.4 261.4-137.4c46.4-24.4 101.8 14.8 92.8 67.4l-50 291 211.4 206c38 37 17 101.6-35.4 109.2zM777.2 335.4l47.4-276.8-248.6 130.6-248.6-130.6 47.4 276.8-201.2 196 278 40.4 124.4 252 124.4-252 278-40.4-201.2-196z" />
<glyph unicode="&#xe935;" glyph-name="times-circle" d="M512 944c-274 0-496-222-496-496s222-496 496-496 496 222 496 496-222 496-496 496zM512 48c-221 0-400 179-400 400s179 400 400 400 400-179 400-400-179-400-400-400zM715.6 572.4l-124.4-124.4 124.4-124.4c9.4-9.4 9.4-24.6 0-34l-45.2-45.2c-9.4-9.4-24.6-9.4-34 0l-124.4 124.4-124.4-124.4c-9.4-9.4-24.6-9.4-34 0l-45.2 45.2c-9.4 9.4-9.4 24.6 0 34l124.4 124.4-124.4 124.4c-9.4 9.4-9.4 24.6 0 34l45.2 45.2c9.4 9.4 24.6 9.4 34 0l124.4-124.4 124.4 124.4c9.4 9.4 24.6 9.4 34 0l45.2-45.2c9.4-9.4 9.4-24.6 0-34z" />
<glyph unicode="&#xe936;" glyph-name="trash-alt" horiz-adv-x="896" d="M536 128h48c13.255 0 24 10.745 24 24v0 432c0 13.255-10.745 24-24 24v0h-48c-13.255 0-24-10.745-24-24v0-432c0-13.255 10.745-24 24-24v0zM864 800h-164.82l-68 113.4c-17.083 28.11-47.539 46.6-82.314 46.6-0.016 0-0.032 0-0.048 0h-201.637c-0.002 0-0.004 0-0.006 0-34.775 0-65.231-18.49-82.074-46.175l-0.24-0.425-68.040-113.4h-164.82c-17.673 0-32-14.327-32-32v0-32c0-17.673 14.327-32 32-32v0h32v-672c0-53.019 42.981-96 96-96v0h576c53.019 0 96 42.981 96 96v0 672h32c17.673 0 32 14.327 32 32v0 32c0 17.673-14.327 32-32 32v0zM343.68 858.18c2.136 3.511 5.941 5.82 10.286 5.82 0.012 0 0.024 0 0.036 0h187.998c0.004 0 0.009 0 0.014 0 4.345 0 8.15-2.309 10.256-5.767l0.030-0.053 34.92-58.18h-278.44zM736 32h-576v672h576zM312 128h48c13.255 0 24 10.745 24 24v0 432c0 13.255-10.745 24-24 24v0h-48c-13.255 0-24-10.745-24-24v0-432c0-13.255 10.745-24 24-24v0z" />
<glyph unicode="&#xe937;" glyph-name="arrow-alt-circle-left1" d="M512-48c-274 0-496 222-496 496s222 496 496 496 496-222 496-496-222-496-496-496zM744 536h-232v141.8c0 21.4-26 32.2-41 17l-228.6-229.8c-9.4-9.4-9.4-24.4 0-33.8l228.6-229.8c15.2-15.2 41-4.4 41 17v141.6h232c13.2 0 24 10.8 24 24v128c0 13.2-10.8 24-24 24z" />
<glyph unicode="&#xe938;" glyph-name="arrow-alt-circle-right1" d="M512 944c274 0 496-222 496-496s-222-496-496-496-496 222-496 496 222 496 496 496zM280 360h232v-141.8c0-21.4 26-32.2 41-17l228.6 229.8c9.4 9.4 9.4 24.4 0 33.8l-228.6 230c-15.2 15.2-41 4.4-41-17v-141.8h-232c-13.2 0-24-10.8-24-24v-128c0-13.2 10.8-24 24-24z" />
<glyph unicode="&#xe939;" glyph-name="building-solid" horiz-adv-x="896" d="M872 0h-40v912c0 26.51-21.49 48-48 48h-672c-26.51 0-48-21.49-48-48v-912h-40c-13.254 0-24-10.746-24-24v-40h896v40c0 13.254-10.746 24-24 24zM256 808c0 13.254 10.746 24 24 24h80c13.254 0 24-10.746 24-24v-80c0-13.254-10.746-24-24-24h-80c-13.254 0-24 10.746-24 24v80zM256 616c0 13.254 10.746 24 24 24h80c13.254 0 24-10.746 24-24v-80c0-13.254-10.746-24-24-24h-80c-13.254 0-24 10.746-24 24v80zM360 320h-80c-13.254 0-24 10.746-24 24v80c0 13.254 10.746 24 24 24h80c13.254 0 24-10.746 24-24v-80c0-13.254-10.746-24-24-24zM512 0h-128v168c0 13.254 10.746 24 24 24h80c13.254 0 24-10.746 24-24v-168zM640 344c0-13.254-10.746-24-24-24h-80c-13.254 0-24 10.746-24 24v80c0 13.254 10.746 24 24 24h80c13.254 0 24-10.746 24-24v-80zM640 536c0-13.254-10.746-24-24-24h-80c-13.254 0-24 10.746-24 24v80c0 13.254 10.746 24 24 24h80c13.254 0 24-10.746 24-24v-80zM640 728c0-13.254-10.746-24-24-24h-80c-13.254 0-24 10.746-24 24v80c0 13.254 10.746 24 24 24h80c13.254 0 24-10.746 24-24v-80z" />
<glyph unicode="&#xe93a;" glyph-name="bullhorn" horiz-adv-x="1152" d="M1152 480c0 47.26-25.9 88.080-64 110.24v305.74c0 17.5-13.96 64.020-64 64.020-14.24 0-28.38-4.76-39.96-14.040l-170.060-136.060c-85.42-68.28-192.66-105.9-301.98-105.9h-384c-70.7 0-128-57.3-128-128v-192c0-70.7 57.3-128 128-128h67.4c-2.78-20.96-4.36-42.28-4.36-64 0-79.54 18.52-154.7 51.12-221.88 10.38-21.38 33.040-34.12 56.8-34.12h148.56c52.1 0 83.38 59.68 51.8 101.12-32.8 43.040-52.3 96.72-52.3 154.88 0 22.22 3.24 43.58 8.82 64h56.16c109.32 0 216.56-37.62 301.96-105.9l170.060-136.060c10.844-8.735 24.783-14.026 39.957-14.040h0.003c49.84 0 64 45.56 64 64v305.74c38.12 22.18 64.020 63 64.020 110.26zM960 197.16l-66.1 52.88c-108 86.4-243.66 133.96-381.9 133.96v192c138.24 0 273.9 47.56 381.9 133.96l66.1 52.88v-565.68z" />
<glyph unicode="&#xe93b;" glyph-name="print-solid" d="M896 576v229.5c0 16.98-6.74 33.24-18.74 45.26l-90.52 90.5c-12 12-28.28 18.74-45.26 18.74h-549.48c-35.34 0-64-28.66-64-64v-320c-70.7 0-128-57.3-128-128v-224c0-17.68 14.32-32 32-32h96v-192c0-35.34 28.66-64 64-64h640c35.34 0 64 28.66 64 64v192h96c17.68 0 32 14.32 32 32v224c0 70.7-57.3 128-128 128zM768 64h-512v192h512v-192zM768 512h-512v320h384v-96c0-17.68 14.32-32 32-32h96v-192zM864 368c-26.5 0-48 21.5-48 48 0 26.52 21.5 48 48 48s48-21.48 48-48c0-26.5-21.5-48-48-48z" />
<glyph unicode="&#xe93c;" glyph-name="phone-square-solid" horiz-adv-x="896" d="M800 896h-704c-53.020 0-96-42.98-96-96v-704c0-53.020 42.98-96 96-96h704c53.020 0 96 42.98 96 96v704c0 53.020-42.98 96-96 96zM188 128c-14.066 0-26.114 9.746-29.232 23.254l-29.996 130c-0.488 2.027-0.768 4.354-0.768 6.746 0 12.298 7.4 22.867 17.989 27.499l0.193 0.075 139.996 59.998c3.484 1.533 7.546 2.425 11.817 2.425 9.336 0 17.676-4.264 23.178-10.952l0.041-0.052 61.994-75.77c97.888 45.926 176.594 125.716 221.562 221.56l-75.772 61.994c-6.739 5.544-11.003 13.884-11.003 23.22 0 4.27 0.892 8.332 2.5 12.009l-0.075-0.193 60 139.996c4.707 10.783 15.277 18.182 27.574 18.182 2.392 0 4.719-0.28 6.949-0.809l-0.204 0.041 130-29.996c13.422-3.173 23.256-15.052 23.256-29.227 0 0 0 0 0-0.001v0c0-320.584-259.89-580-580-580z" />
<glyph unicode="&#xe93d;" glyph-name="amazon-pay" horiz-adv-x="1280" d="M28 309.4c4.6 8.4 10.4 9.8 19.4 5 20.8-11.2 41.2-22.8 62.4-33.4 72.939-37.337 157.828-69.096 246.627-90.903l8.173-1.697c33.533-8.636 76.394-16.896 119.981-22.879l6.419-0.721c48.286-6.846 104.059-10.755 160.745-10.755 10.287 0 20.545 0.129 30.77 0.385l-1.515-0.030c34.8 0.8 69.6 3.6 104.2 7.6 121.119 14.424 231.479 44.555 334.473 88.593l-7.873-2.993c5.8 2.4 11.8 4 18.2 2.4 13.4-3.6 18-18 8.2-27.8-5.72-5.272-11.992-10.146-18.655-14.469l-0.545-0.331c-61.4-42.2-128.4-72.8-199.2-95.8-42.201-14.232-92.855-26.5-144.908-34.528l-5.292-0.672c-31.109-5.043-67.839-8.494-105.164-9.572l-1.236-0.028c-1.866-0.115-3.582-0.328-5.263-0.641l0.263 0.041h-42.2c-1.418 0.272-3.134 0.485-4.878 0.594l-0.122 0.006c-7.2 0.4-14.4 0.6-21.4 0.8-37.15 1.72-71.84 5.509-105.843 11.312l5.043-0.712c-61.092 10.099-115.179 24.629-167.008 43.812l6.208-2.012c-112.52 41.238-209.3 100.308-292.007 174.714l0.807-0.714c-3.6 3.2-6 7.6-8.8 11.4zM344 829.8l-8.6-1.2c-28.899-3.658-54.748-14.436-76.437-30.509l0.437 0.309c-4.8-3.4-9.2-7-14.2-10.8-0.402 0.815-0.685 1.762-0.796 2.761l-0.004 0.039c-0.8 5.4-1.6 11-2.6 16.4-1.4 9.2-6 13.2-15.2 13.2h-23c-13.8 0-16.4-2.6-16.4-16.4v-418.6c0-2 0-4 0.2-6 0.4-6 4-9.8 9.8-10 14-0.2 28.2-0.2 42.2 0 5.8 0 9.4 4 10 10 0.2 2 0.2 4 0.2 6v144.8c2.2-1.8 3.4-2.8 4.4-3.8 35.8-29.8 77-39.6 122-30.8 40.8 8 69.2 33 87.6 69.8 14 27.8 19.8 57.4 20.6 88.2 1 34.2-2.4 67.8-16.2 99.6-17 39.2-45.2 65-87.8 73.8-6.4 1.4-13 2-19.6 3-5.6 0.2-11 0.2-16.6 0.2zM249.2 746c-0.017 0.181-0.026 0.391-0.026 0.604 0 2.541 1.361 4.763 3.394 5.979l0.032 0.018c27.4 19 57.6 29 91.2 26.4 29.8-2.2 54.2-16.8 67-51.8 7.8-21.4 9.8-43.6 9.8-66 0-20.8-1.6-41.2-8-61.2-13.6-42.6-44.8-58.8-85.2-57-28 1.2-52.4 12-74.8 27.8-2.064 1.276-3.418 3.526-3.418 6.093 0 0.178 0.007 0.355 0.019 0.53l-0.001-0.023c0.2 28.2 0 56.2 0 84.4s0.2 56 0 84.2zM660.6 829.8c-2-0.2-4-0.6-5.8-0.8-20.96-0.907-40.768-3.845-59.842-8.634l2.042 0.434c-12.2-3.2-24-7.6-35.8-11.6-7.2-2.4-10.8-7.6-10.6-15.4 0.2-6.6-0.2-13.2 0-19.8 0.2-9.6 4.2-12.2 13.6-9.8 15.6 4 31.2 8.4 47 11.4 24.6 4.6 49.4 6.6 74.4 2.8 13-2 25.2-5.8 33.6-16.8 7.4-9.6 10.2-21 10.6-32.8 0.6-16.6 0.4-33.2 0.6-49.8-0.054-1.022-0.197-1.981-0.422-2.907l0.022 0.107c-1 0.2-1.8 0-2.6 0.2-18.636 4.816-40.51 8.305-62.941 9.746l-1.059 0.054c-22.6 1.2-45-0.2-66.6-7.8-25.8-9-46.6-24.6-58.8-49.8-9.4-19.6-10.8-40.4-7.8-61.4 4-28 18-49.6 42.8-63.4 23.8-13.2 49.6-14.8 75.8-10.8 30.2 4.6 57 17.4 80.6 36.8 0.928 0.841 1.98 1.573 3.118 2.161l0.082 0.039c1.2-7.6 2.2-14.8 3.6-22 1.2-6.2 5-10.2 10.8-10.4 10.8-0.2 21.8-0.2 32.6 0 5.215 0.042 9.445 4.202 9.6 9.386v0.014c0.133 1.399 0.208 3.024 0.208 4.668 0 0.328-0.003 0.655-0.009 0.981l0.001-0.049v212c0.006 0.535 0.010 1.168 0.010 1.801 0 8.47-0.658 16.786-1.926 24.901l0.116-0.901c-3.8 25.8-14.8 47-38 60.8-13.4 8-28.2 12-43.6 14.2-7.2 1-14.4 1.6-21.6 2.6-7.8-0.2-15.8-0.2-23.8-0.2zM730.6 574.4c0.009-0.128 0.014-0.277 0.014-0.427 0-2.322-1.188-4.366-2.989-5.558l-0.025-0.015c-22.4-16.2-47-27-74.8-29.8-11.4-1.2-22.8-0.8-33.6 3.6-12.015 4.481-21.149 14.207-24.728 26.316l-0.072 0.284c-1.919 5.896-3.026 12.681-3.026 19.724 0 6.805 1.033 13.368 2.951 19.542l-0.125-0.466c5 16.6 16.8 26 32.8 31.2 10.597 3.314 22.782 5.223 35.413 5.223 4.999 0 9.929-0.299 14.771-0.88l-0.584 0.057c16.8-1.4 33.2-4.6 50-6.8 3.2-0.4 4.2-2 4.2-5.2-0.2-9.6 0-19 0-28.6s-0.4-18.8-0.2-28.2zM1250.4 315.6c-2 10-9.6 13.8-18.2 16.6-12.347 4.035-26.664 6.816-41.479 7.773l-0.521 0.027c-7.508 0.68-16.24 1.068-25.063 1.068-18.857 0-37.301-1.771-55.173-5.157l1.836 0.289c-28.6-5.4-55.8-14.6-80-31.2-2.916-1.893-5.371-4.221-7.346-6.922l-0.054-0.078c-0.881-1.479-1.401-3.261-1.401-5.165 0-1.010 0.147-1.986 0.419-2.907l-0.018 0.072c0.8-3 4.2-3.8 7.2-3.6 0.218-0.005 0.475-0.008 0.732-0.008 1.292 0 2.567 0.076 3.82 0.223l-0.152-0.015c15.6 1.6 31 3.4 46.6 5 22.8 2.2 45.8 3.6 68.6 1.8 10.628-0.902 20.426-2.815 29.815-5.665l-1.015 0.265c10.2-2.8 14.8-10.4 15.2-20.8 0.8-16-2.8-31.4-7-46.6-8.2-30.8-20-60.6-31.6-90.2-0.762-1.687-1.448-3.687-1.951-5.759l-0.049-0.241c-1-5.8 2.4-9.6 8.2-8.2 3.738 0.858 6.983 2.607 9.616 5.015l-0.016-0.015c8.986 8.369 17.289 17.115 25.030 26.347l0.37 0.453c25.6 32.8 40.6 70.6 49.4 111.2 1.6 7.2 2.8 14.6 4.2 21.8v34.6zM986.2 562q-38.7 107.1-77.4 214.4c-4 11.4-8.4 22.6-12.6 33.8-2.2 5.8-6.4 9.6-12.8 9.6-15.2 0.2-30.4 0.4-45.8 0.2-5 0-7.4-4-6.4-9 1.116-4.777 2.421-8.85 4.006-12.779l-0.206 0.579q58.8-145.5 118.2-291c3.4-8.2 4.2-15.2 0.4-23.6-6.6-14.6-11.8-30-18.6-44.6-6-13-16-22.8-30.4-26.6-6.391-1.738-13.73-2.737-21.302-2.737-3.347 0-6.648 0.195-9.893 0.575l0.394-0.038c-5 0.4-10 1.6-15 2-6.8 0.4-10.2-2.6-10.4-9.6q-0.3-10 0-19.8c0.2-11 4-16 14.8-17.8 9.9-2.075 21.516-3.508 33.378-3.986l0.422-0.014c34.2-0.8 61.4 13 79 42.8 6.371 10.36 12.54 22.46 17.759 35.054l0.641 1.746q71.1 179.4 141.2 359.2c1.342 3.15 2.452 6.84 3.151 10.674l0.049 0.326c0.8 5.6-1.8 8.8-7.4 8.8-13.2 0.2-26.6 0-39.8 0-0.315 0.023-0.682 0.037-1.053 0.037-6.669 0-12.327-4.329-14.317-10.33l-0.031-0.107c-1-2.8-2.2-5.4-3.2-8.2l-69.6-200c-5-14.4-10.2-29-15.4-44.4-0.8 2.2-1.2 3.4-1.8 4.8z" />
<glyph unicode="&#xe93e;" glyph-name="facebook-f" horiz-adv-x="640" d="M558.28 384l28.44 185.32h-177.82v120.26c0 50.7 24.84 100.12 104.48 100.12h80.84v157.78s-73.36 12.52-143.5 12.52c-146.44 0-242.16-88.76-242.16-249.44v-141.24h-162.78v-185.32h162.78v-448h200.34v448z" />
<glyph unicode="&#xe93f;" glyph-name="google" horiz-adv-x="976" d="M976 436.4c0-283-193.8-484.4-480-484.4-274.4 0-496 221.6-496 496s221.6 496 496 496c133.6 0 246-49 332.6-129.8l-135-129.8c-176.6 170.4-505 42.4-505-236.4 0-173 138.2-313.2 307.4-313.2 196.4 0 270 140.8 281.6 213.8h-281.6v170.6h472.2c4.6-25.4 7.8-49.8 7.8-82.8z" />
<glyph unicode="&#xe940;" glyph-name="pinterest-p" horiz-adv-x="768" d="M408 947c-205.2 0-408-136.8-408-358.2 0-140.8 79.2-220.8 127.2-220.8 19.8 0 31.2 55.2 31.2 70.8 0 18.6-47.4 58.2-47.4 135.6 0 160.8 122.4 274.8 280.8 274.8 136.2 0 237-77.4 237-219.6 0-106.2-42.6-305.4-180.6-305.4-49.8 0-92.4 36-92.4 87.6 0 75.6 52.8 148.8 52.8 226.8 0 132.4-187.8 108.4-187.8-51.6 0-33.6 4.2-70.8 19.2-101.4-27.6-118.8-84-295.8-84-418.2 0-37.8 5.4-75 9-112.8 6.8-7.6 3.4-6.8 13.8-3 100.8 138 97.2 165 142.8 345.6 24.6-46.8 88.2-72 138.6-72 212.4 0 307.8 207 307.8 393.6 0 198.6-171.6 328.2-360 328.2z" />
<glyph unicode="&#xe941;" glyph-name="phone-solid" d="M986.8 910.8l-208 48c-22.6 5.2-45.8-6.6-55-27.8l-96-224c-8.4-19.6-2.8-42.6 13.8-56l121.2-99.2c-72-153.4-197.8-281-354.4-354.4l-99.2 121.2c-13.6 16.6-36.4 22.2-56 13.8l-224-96c-21.4-9.4-33.2-32.6-28-55.2l48-208c5-21.6 24.2-37.2 46.8-37.2 512.2 0 928 415 928 928 0 22.4-15.4 41.8-37.2 46.8z" />
<glyph unicode="&#xe942;" glyph-name="map-marker-alt-solid" horiz-adv-x="768" d="M344.536-43.34c-290.596 421.278-344.536 464.514-344.536 619.34 0 212.078 171.922 384 384 384s384-171.922 384-384c0-154.826-53.94-198.062-344.536-619.34-19.070-27.548-59.86-27.546-78.928 0zM384 416c88.366 0 160 71.634 160 160s-71.634 160-160 160-160-71.634-160-160 71.634-160 160-160z" />
<glyph unicode="&#xe943;" glyph-name="globe-europe-solid" horiz-adv-x="992" d="M496 944c-274 0-496-222-496-496s222-496 496-496 496 222 496 496-222 496-496 496zM896 448c0-45-7.8-88.4-21.6-128.8h-40.6c-8.6 0-16.8 3.4-22.8 9.6l-64 65.2c-9 9.2-9 24.2 0.2 33.4l25 25v17.4c0 6-2.4 11.8-6.6 16l-18.8 18.8c-4.2 4.2-10 6.6-16 6.6h-32c-12.4 0-22.6 10.2-22.6 22.6 0 6 2.4 11.8 6.6 16l18.8 18.8c4.2 4.2 10 6.6 16 6.6h64c12.4 0 22.6 10.2 22.6 22.6v18.8c0 12.4-10.2 22.6-22.6 22.6h-73.4c-17.6 0-32-14.4-32-32v-9c0-13.8-8.8-26-21.8-30.4l-63.2-21c-6.6-2.2-11-8.2-11-15.2v-4.4c0-8.8-7.2-16-16-16h-32c-8.8 0-16 7.2-16 16s-7.2 16-16 16h-6.2c-6 0-11.6-3.4-14.4-8.8l-18.8-37.4c-5.4-10.8-16.4-17.6-28.6-17.6h-44.2c-17.6 0-32 14.4-32 32v50.6c0 8.4 3.4 16.6 9.4 22.6l40.2 40.2c9.2 9.2 14.4 21.8 14.4 35 0 6.8 4.4 13 11 15.2l80 26.6c3.4 1.2 6.4 3 8.8 5.4l53.6 53.6c4.2 4.2 6.6 10 6.6 16 0 12.4-10.2 22.6-22.6 22.6h-41.4l-32-32v-16c0-8.8-7.2-16-16-16h-32c-8.8 0-16 7.2-16 16v40c0 5 2.4 9.8 6.4 12.8l57.8 43.4c3.8 0.2 7.6 0.6 11.4 0.6 221 0 400.4-179.4 400.4-400zM260.2 661.8c0 6 2.4 11.8 6.6 16l50.8 50.8c4.2 4.2 10 6.6 16 6.6 12.4 0 22.6-10.2 22.6-22.6v-32c0-6-2.4-11.8-6.6-16l-18.8-18.8c-4.2-4.2-10-6.6-16-6.6h-32c-12.4 0-22.6 10.2-22.6 22.6zM516.2 49v14.2c0 17.6-14.4 32-32 32h-40.4c-21.6 0-53.4 10.6-70.8 23.6l-44.4 33.4c-23 17.2-36.4 44.2-36.4 72.8v47.8c0 32 16.8 61.6 44.2 78l85.8 51.4c14.2 8.4 30.4 13 46.8 13h62.4c21.8 0 42.8-7.8 59.2-21.8l86.4-74.2h36.6c17 0 33.2-6.8 45.2-18.8l34.6-34.6c6.8-6.8 16.2-10.6 25.8-10.6h26.8c-64.8-117.8-187.6-199-329.8-206.2z" />
<glyph unicode="&#xe944;" glyph-name="envelope-solid" d="M1004.6 578.4c7.8 6.2 19.4 0.4 19.4-9.4v-409c0-53-43-96-96-96h-832c-53 0-96 43-96 96v408.8c0 10 11.4 15.6 19.4 9.4 44.8-34.8 104.2-79 308.2-227.2 42.2-30.8 113.4-95.6 184.4-95.2 71.4-0.6 144 65.6 184.6 95.2 204 148.2 263.2 192.6 308 227.4zM512 320c46.4-0.8 113.2 58.4 146.8 82.8 265.4 192.6 285.6 209.4 346.8 257.4 11.6 9 18.4 23 18.4 37.8v38c0 53-43 96-96 96h-832c-53 0-96-43-96-96v-38c0-14.8 6.8-28.6 18.4-37.8 61.2-47.8 81.4-64.8 346.8-257.4 33.6-24.4 100.4-83.6 146.8-82.8z" />
<glyph unicode="&#xe945;" glyph-name="fax" d="M960 640v165.5c-0.003 17.677-7.172 33.679-18.76 45.26l-90.5 90.5c-11.579 11.576-27.573 18.737-45.239 18.74h-485.501c-35.346 0-64-28.654-64-64v0-896c0-35.346 28.654-64 64-64v0h640c35.346 0 64 28.654 64 64v0 576c0 35.346-28.654 64-64 64v0zM576 96c0-17.673-14.327-32-32-32v0h-64c-17.673 0-32 14.327-32 32v0 64c0 17.673 14.327 32 32 32v0h64c17.673 0 32-14.327 32-32v0zM576 352c0-17.673-14.327-32-32-32v0h-64c-17.673 0-32 14.327-32 32v0 64c0 17.673 14.327 32 32 32v0h64c17.673 0 32-14.327 32-32v0zM832 96c0-17.673-14.327-32-32-32v0h-64c-17.673 0-32 14.327-32 32v0 64c0 17.673 14.327 32 32 32v0h64c17.673 0 32-14.327 32-32v0zM832 352c0-17.673-14.327-32-32-32v0h-64c-17.673 0-32 14.327-32 32v0 64c0 17.673 14.327 32 32 32v0h64c17.673 0 32-14.327 32-32v0zM832 576h-448v256h320v-96c0-17.673 14.327-32 32-32v0h96zM128 704h-64c-35.346 0-64-28.654-64-64v0-640c0-35.346 28.654-64 64-64v0h64c35.346 0 64 28.654 64 64v0 640c0 35.346-28.654 64-64 64v0z" />
<glyph unicode="&#xe946;" glyph-name="home-solid" horiz-adv-x="1152" d="M560.74 663.48l-368.74-303.7v-327.78c0-17.673 14.327-32 32-32v0l224.12 0.58c17.604 0.091 31.84 14.383 31.84 32 0 0 0 0 0 0v0 191.42c0 17.673 14.327 32 32 32v0h128c17.673 0 32-14.327 32-32v0-191.28c0-0.030 0-0.065 0-0.1 0-17.673 14.327-32 32-32 0 0 0 0 0 0v0l224.040-0.62c17.673 0 32 14.327 32 32v0 328l-368.66 303.48c-4.145 3.363-9.485 5.399-15.3 5.399s-11.155-2.036-15.345-5.434l0.045 0.036zM1143.2 457.060l-167.2 137.82v277.020c0 13.255-10.745 24-24 24v0h-112c-13.255 0-24-10.745-24-24v0-145.22l-179.060 147.32c-16.448 13.613-37.759 21.872-61 21.872s-44.552-8.259-61.161-22.001l0.161 0.129-506.26-416.94c-5.337-4.434-8.71-11.073-8.71-18.499 0-5.833 2.081-11.181 5.542-15.34l-0.032 0.039 51-62c4.434-5.364 11.089-8.755 18.537-8.755 5.825 0 11.166 2.075 15.323 5.527l-0.039-0.032 470.44 387.48c4.145 3.363 9.485 5.399 15.3 5.399s11.155-2.036 15.345-5.434l-0.045 0.036 470.46-387.48c4.12-3.429 9.468-5.51 15.301-5.51 7.426 0 14.065 3.373 18.467 8.671l0.032 0.039 51 62c3.398 4.11 5.459 9.434 5.459 15.239 0 7.494-3.435 14.186-8.816 18.587l-0.043 0.034z" />
<glyph unicode="&#xe947;" glyph-name="search-solid" d="M1010 74.6l-199.4 199.4c-9 9-21.2 14-34 14h-32.6c55.2 70.6 88 159.4 88 256 0 229.8-186.2 416-416 416s-416-186.2-416-416 186.2-416 416-416c96.6 0 185.4 32.8 256 88v-32.6c0-12.8 5-25 14-34l199.4-199.4c18.8-18.8 49.2-18.8 67.8 0l56.6 56.6c18.8 18.8 18.8 49.2 0.2 68zM416 288c-141.4 0-256 114.4-256 256 0 141.4 114.4 256 256 256 141.4 0 256-114.4 256-256 0-141.4-114.4-256-256-256z" />
<glyph unicode="&#xe948;" glyph-name="clock" d="M512 944c-274 0-496-222-496-496s222-496 496-496 496 222 496 496-222 496-496 496zM512 48c-221 0-400 179-400 400s179 400 400 400 400-179 400-400-179-400-400-400zM635.6 256.8l-169.8 123.4c-6.2 4.6-9.8 11.8-9.8 19.4v328.4c0 13.2 10.8 24 24 24h64c13.2 0 24-10.8 24-24v-283.4l133.6-97.2c10.8-7.8 13-22.8 5.2-33.6l-37.6-51.8c-7.8-10.6-22.8-13-33.6-5.2z" />
<glyph unicode="&#xe949;" glyph-name="exchange-alt-solid" d="M0 624v32c0 26.51 21.49 48 48 48h720v96c0 42.734 51.798 64.084 81.942 33.942l160-160c18.744-18.746 18.744-49.138 0-67.882l-160-160c-30.030-30.024-81.942-8.972-81.942 33.94v96h-720c-26.51 0-48 21.49-48 48zM976 320h-720v96c0 42.628-51.724 64.16-81.942 33.942l-160-160c-18.744-18.746-18.744-49.138 0-67.882l160-160c30.056-30.054 81.942-8.934 81.942 33.94v96h720c26.51 0 48 21.49 48 48v32c0 26.51-21.49 48-48 48z" />
<glyph unicode="&#xe94a;" glyph-name="exclamation-circle-solid" d="M1008 448c0-273.994-222.086-496-496-496s-496 222.006-496 496c0 273.834 222.086 496 496 496s496-222.166 496-496zM512 348c-50.81 0-92-41.19-92-92s41.19-92 92-92 92 41.19 92 92-41.19 92-92 92zM424.654 678.692l14.836-272c0.694-12.728 11.218-22.692 23.964-22.692h97.092c12.746 0 23.27 9.964 23.964 22.692l14.836 272c0.75 13.748-10.196 25.308-23.964 25.308h-126.766c-13.768 0-24.712-11.56-23.962-25.308z" />
<glyph unicode="&#xe94b;" glyph-name="exclamation-triangle-solid" horiz-adv-x="1152" d="M1139.034 79.974c36.916-63.988-9.422-143.974-83.154-143.974h-959.772c-73.874 0-119.998 80.11-83.154 143.974l479.892 832.056c36.934 64.018 129.44 63.902 166.308 0l479.88-832.056zM576 252c-50.81 0-92-41.19-92-92s41.19-92 92-92 92 41.19 92 92-41.19 92-92 92zM488.654 582.692l14.836-272c0.694-12.728 11.218-22.692 23.964-22.692h97.092c12.746 0 23.27 9.964 23.964 22.692l14.836 272c0.75 13.748-10.196 25.308-23.964 25.308h-126.766c-13.768 0-24.712-11.56-23.962-25.308z" />
<glyph unicode="&#xe94c;" glyph-name="sync-alt-solid" d="M741.44 693.44c-62.524 58.544-143.664 90.636-229.744 90.56-154.916-0.136-288.656-106.356-325.582-253.7-2.688-10.726-12.244-18.3-23.302-18.3h-114.606c-14.996 0-26.388 13.614-23.614 28.352 43.274 229.8 245.034 403.648 487.408 403.648 132.896 0 253.582-52.272 342.63-137.37l71.43 71.43c30.238 30.238 81.94 8.822 81.94-33.942v-268.118c0-26.51-21.49-48-48-48h-268.118c-42.764 0-64.18 51.702-33.942 81.942l83.5 83.498zM64 368h268.118c42.764 0 64.18-51.702 33.942-81.942l-83.5-83.5c62.524-58.546 143.67-90.638 229.752-90.56 154.836 0.14 288.63 106.288 325.574 253.698 2.688 10.726 12.244 18.3 23.302 18.3h114.608c14.996 0 26.388-13.614 23.614-28.352-43.276-229.796-245.036-403.644-487.41-403.644-132.896 0-253.582 52.272-342.63 137.37l-71.43-71.43c-30.238-30.238-81.94-8.822-81.94 33.942v268.118c0 26.51 21.49 48 48 48z" />
<glyph unicode="&#xe94d;" glyph-name="info-circle-solid" d="M512 944c-273.914 0-496-222.166-496-496 0-273.994 222.086-496 496-496s496 222.006 496 496c0 273.834-222.086 496-496 496zM512 724c46.392 0 84-37.608 84-84s-37.608-84-84-84-84 37.608-84 84 37.608 84 84 84zM624 216c0-13.254-10.746-24-24-24h-176c-13.254 0-24 10.746-24 24v48c0 13.254 10.746 24 24 24h24v128h-24c-13.254 0-24 10.746-24 24v48c0 13.254 10.746 24 24 24h128c13.254 0 24-10.746 24-24v-200h24c13.254 0 24-10.746 24-24v-48z" />
<glyph unicode="&#xe94e;" glyph-name="user-plus-solid" horiz-adv-x="1280" d="M1248 544h-128v128c0 17.6-14.4 32-32 32h-64c-17.6 0-32-14.4-32-32v-128h-128c-17.6 0-32-14.4-32-32v-64c0-17.6 14.4-32 32-32h128v-128c0-17.6 14.4-32 32-32h64c17.6 0 32 14.4 32 32v128h128c17.6 0 32 14.4 32 32v64c0 17.6-14.4 32-32 32zM448 448c141.4 0 256 114.6 256 256s-114.6 256-256 256-256-114.6-256-256 114.6-256 256-256zM627.2 384h-33.4c-44.4-20.4-93.8-32-145.8-32s-101.2 11.6-145.8 32h-33.4c-148.4 0-268.8-120.4-268.8-268.8v-83.2c0-53 43-96 96-96h704c53 0 96 43 96 96v83.2c0 148.4-120.4 268.8-268.8 268.8z" />
<glyph unicode="&#xe94f;" glyph-name="sign-in-alt-solid" d="M832 64h-168c-13.2 0-24 10.8-24 24v80c0 13.2 10.8 24 24 24h168c35.4 0 64 28.6 64 64v384c0 35.4-28.6 64-64 64h-168c-13.2 0-24 10.8-24 24v80c0 13.2 10.8 24 24 24h168c106 0 192-86 192-192v-384c0-106-86-192-192-192zM738 466l-336 336c-30 30-82 9-82-34v-192h-272c-26.6 0-48-21.4-48-48v-192c0-26.6 21.4-48 48-48h272v-192c0-43 52-64 82-34l336 336c18.6 18.8 18.6 49.2 0 68z" />
<glyph unicode="&#xe950;" glyph-name="user-edit-solid" horiz-adv-x="1280" d="M448 448c141.4 0 256 114.6 256 256s-114.6 256-256 256-256-114.6-256-256 114.6-256 256-256zM627.2 384h-33.4c-44.4-20.4-93.8-32-145.8-32s-101.2 11.6-145.8 32h-33.4c-148.4 0-268.8-120.4-268.8-268.8v-83.2c0-53 43-96 96-96h549.8c-4.8 13.6-6.8 28-5.2 42.6l13.6 121.8 2.4 22.2 170.4 170.4c-49 55.4-120 91-199.8 91zM717.8 93.4l-13.6-122c-2.2-20.4 15-37.6 35.2-35.2l121.8 13.6 275.8 275.8-143.4 143.4-275.8-275.6zM1266 422.2l-75.8 75.8c-18.6 18.6-49 18.6-67.6 0l-83.8-83.8 143.6-143.4 83.6 83.6c18.6 18.8 18.6 49 0 67.8z" />
<glyph unicode="&#xe951;" glyph-name="angle-left-solid" horiz-adv-x="512" d="M63.4 482l272 272c18.8 18.8 49.2 18.8 67.8 0l45.2-45.2c18.8-18.8 18.8-49.2 0-67.8l-192.6-193 192.8-192.8c18.8-18.8 18.8-49.2 0-67.8l-45.2-45.4c-18.8-18.8-49.2-18.8-67.8 0l-272 272c-19 18.8-19 49.2-0.2 68z" />
<glyph unicode="&#xe952;" glyph-name="angle-right-solid" horiz-adv-x="512" d="M448.6 414l-272-272c-18.8-18.8-49.2-18.8-67.8 0l-45.2 45.2c-18.8 18.8-18.8 49.2 0 67.8l192.8 192.8-192.8 192.8c-18.8 18.8-18.8 49.2 0 67.8l45 45.6c18.8 18.8 49.2 18.8 67.8 0l272-272c19-18.8 19-49.2 0.2-68z" />
<glyph unicode="&#xe953;" glyph-name="people-carry-solid" horiz-adv-x="1280" d="M256 768c53 0 96 43 96 96s-43 96-96 96-96-43-96-96 43-96 96-96zM1024 768c53 0 96 43 96 96s-43 96-96 96-96-43-96-96 43-96 96-96zM1275.4 23.8l-88 220-82.2-92.8-4-36.4 55.4-138.4c10-25 34-40.2 59.4-40.2 8 0 16 1.4 23.8 4.6 32.8 13.2 48.8 50.4 35.6 83.2zM1207 443.4l-37 160.4c-9.2 40-37.2 73.6-75 89.8-37 16-78 13.4-112.2-6.6-45.4-26.8-79.4-69-96.2-118.8l-22.6-67.8-32-20.4v192c0 17.6-14.4 32-32 32h-320c-17.6 0-32-14.4-32-32v-192l-32.2 20.4-22.6 67.8c-16.6 50-50.8 92-96.2 118.8-34.4 20-75.2 22.6-112.2 6.6-37.8-16.2-65.8-49.8-75-89.8l-36.8-160.4c-9.2-40 1.4-82.4 28.8-113.4l134.4-151.8 20.2-185.2c3.6-32.6 31.2-57 63.6-57 2.4 0 4.6 0.2 7 0.4 35.2 3.8 60.4 35.4 56.6 70.6l-20.2 185.6c-3 26-13.8 50.2-31.2 70l-86.6 98 35.2 140.6 13.6-40.8c8.2-25 23.8-46.8 49-65.2l102.2-65c9.2-5.8 24.2-9.2 34.4-10h320c10.2 0.8 25.2 4.2 34.4 10l102.2 65c25.2 18.4 40.8 40 49 65.2l13.6 40.8 35.2-140.6-86.6-98c-17.4-19.8-28.2-44-31.2-70l-20.2-185.6c-3.8-35.2 21.6-66.8 56.6-70.6 2.4-0.2 4.6-0.4 7-0.4 32.2 0 60 24.2 63.6 57l20.2 185.2 134.4 151.8c27.2 31 38 73.4 28.8 113.4zM92.6 243.8l-88-220c-13.2-32.8 2.8-70 35.6-83.2 33.6-13.2 70.2 3.4 83.2 35.6l55.4 138.4-4 36.4-82.2 92.8z" />
<glyph unicode="&#xe954;" glyph-name="lock-solid" horiz-adv-x="896" d="M800 512h-48v144c0 167.6-136.4 304-304 304s-304-136.4-304-304v-144h-48c-53 0-96-43-96-96v-384c0-53 43-96 96-96h704c53 0 96 43 96 96v384c0 53-43 96-96 96zM592 512h-288v144c0 79.4 64.6 144 144 144s144-64.6 144-144v-144z" />
<glyph unicode="&#xe955;" glyph-name="list-solid" d="M160 224h-128c-17.673 0-32-14.327-32-32v0-128c0-17.673 14.327-32 32-32v0h128c17.673 0 32 14.327 32 32v0 128c0 17.673-14.327 32-32 32v0zM160 864h-128c-17.673 0-32-14.327-32-32v0-128c0-17.673 14.327-32 32-32v0h128c17.673 0 32 14.327 32 32v0 128c0 17.673-14.327 32-32 32v0zM160 544h-128c-17.673 0-32-14.327-32-32v0-128c0-17.673 14.327-32 32-32v0h128c17.673 0 32 14.327 32 32v0 128c0 17.673-14.327 32-32 32v0zM992 192h-640c-17.673 0-32-14.327-32-32v0-64c0-17.673 14.327-32 32-32v0h640c17.673 0 32 14.327 32 32v0 64c0 17.673-14.327 32-32 32v0zM992 832h-640c-17.673 0-32-14.327-32-32v0-64c0-17.673 14.327-32 32-32v0h640c17.673 0 32 14.327 32 32v0 64c0 17.673-14.327 32-32 32v0zM992 512h-640c-17.673 0-32-14.327-32-32v0-64c0-17.673 14.327-32 32-32v0h640c17.673 0 32 14.327 32 32v0 64c0 17.673-14.327 32-32 32v0z" />
<glyph unicode="&#xe956;" glyph-name="minus-solid" horiz-adv-x="896" d="M832 544h-768c-35.34 0-64-28.66-64-64v-64c0-35.34 28.66-64 64-64h768c35.34 0 64 28.66 64 64v64c0 35.34-28.66 64-64 64z" />
<glyph unicode="&#xe957;" glyph-name="user-circle-solid" horiz-adv-x="992" d="M496 944c-274 0-496-222-496-496s222-496 496-496 496 222 496 496-222 496-496 496zM496 752c97.2 0 176-78.8 176-176s-78.8-176-176-176-176 78.8-176 176 78.8 176 176 176zM496 64c-117.4 0-222.6 53.2-293 136.4 37.6 70.8 111.2 119.6 197 119.6 4.8 0 9.6-0.8 14.2-2.2 26-8.4 53.2-13.8 81.8-13.8s56 5.4 81.8 13.8c4.6 1.4 9.4 2.2 14.2 2.2 85.8 0 159.4-48.8 197-119.6-70.4-83.2-175.6-136.4-293-136.4z" />
<glyph unicode="&#xe958;" glyph-name="clipboard-list-solid" horiz-adv-x="768" d="M672 832h-160c0 70.6-57.4 128-128 128s-128-57.4-128-128h-160c-53 0-96-43-96-96v-704c0-53 43-96 96-96h576c53 0 96 43 96 96v704c0 53-43 96-96 96zM192 112c-26.6 0-48 21.4-48 48s21.4 48 48 48 48-21.4 48-48-21.4-48-48-48zM192 304c-26.6 0-48 21.4-48 48s21.4 48 48 48 48-21.4 48-48-21.4-48-48-48zM192 496c-26.6 0-48 21.4-48 48s21.4 48 48 48 48-21.4 48-48-21.4-48-48-48zM384 880c26.6 0 48-21.4 48-48s-21.4-48-48-48-48 21.4-48 48 21.4 48 48 48zM640 144c0-8.8-7.2-16-16-16h-288c-8.8 0-16 7.2-16 16v32c0 8.8 7.2 16 16 16h288c8.8 0 16-7.2 16-16v-32zM640 336c0-8.8-7.2-16-16-16h-288c-8.8 0-16 7.2-16 16v32c0 8.8 7.2 16 16 16h288c8.8 0 16-7.2 16-16v-32zM640 528c0-8.8-7.2-16-16-16h-288c-8.8 0-16 7.2-16 16v32c0 8.8 7.2 16 16 16h288c8.8 0 16-7.2 16-16v-32z" />
<glyph unicode="&#xe959;" glyph-name="file-download-solid" horiz-adv-x="768" d="M448 688v272h-400c-26.6 0-48-21.4-48-48v-928c0-26.6 21.4-48 48-48h672c26.6 0 48 21.4 48 48v656h-272c-26.4 0-48 21.6-48 48zM600.9 265.28l-192.84-191.4c-13.3-13.22-34.78-13.22-48.080 0l-192.84 191.4c-20.3 20.14-6.060 54.72 22.5 54.72h130.36v160c0 17.68 14.32 32 32 32h64c17.68 0 32-14.32 32-32v-160h130.36c28.56 0 42.8-34.58 22.54-54.72zM754 750l-195.8 196c-9 9-21.2 14-34 14h-12.2v-256h256v12.2c0 12.6-5 24.8-14 33.8z" />
<glyph unicode="&#xe95a;" glyph-name="mobile-alt-solid" horiz-adv-x="640" d="M544 960h-448c-53 0-96-43-96-96v-832c0-53 43-96 96-96h448c53 0 96 43 96 96v832c0 53-43 96-96 96zM320 0c-35.4 0-64 28.6-64 64s28.6 64 64 64 64-28.6 64-64-28.6-64-64-64zM544 216c0-13.2-10.8-24-24-24h-400c-13.2 0-24 10.8-24 24v624c0 13.2 10.8 24 24 24h400c13.2 0 24-10.8 24-24v-624z" />
<glyph unicode="&#xe95b;" glyph-name="plus-solid" horiz-adv-x="896" d="M832 544h-288v288c0 35.34-28.66 64-64 64h-64c-35.34 0-64-28.66-64-64v-288h-288c-35.34 0-64-28.66-64-64v-64c0-35.34 28.66-64 64-64h288v-288c0-35.34 28.66-64 64-64h64c35.34 0 64 28.66 64 64v288h288c35.34 0 64 28.66 64 64v64c0 35.34-28.66 64-64 64z" />
<glyph unicode="&#xe95c;" glyph-name="facebook-square" horiz-adv-x="896" d="M800 896h-704c-53.019 0-96-42.981-96-96v0-704c0-53.019 42.981-96 96-96v0h274.5v304.62h-126v143.38h126v109.28c0 124.3 74 192.96 187.34 192.96 54.28 0 111.040-9.68 111.040-9.68v-122h-62.54c-61.62 0-80.84-38.24-80.84-77.46v-93.1h137.56l-22-143.38h-115.56v-304.62h274.5c53.019 0 96 42.981 96 96v0 704c0 53.019-42.981 96-96 96v0z" />
<glyph unicode="&#xe95d;" glyph-name="caret-down" horiz-adv-x="640" d="M62.6 576h514.6c35.6 0 53.4-43 28.2-68.2l-257.2-257.4c-15.6-15.6-41-15.6-56.6 0l-257.2 257.4c-25.2 25.2-7.4 68.2 28.2 68.2z" />
</font>
</defs>
</svg>
